вход на сайт

Имя пользователя :
Пароль :

Восстановление пароля Регистрация
Хоббит: Нежданное путешествие / The Hobbit: An Unexpected Journey (Питер Джексон, Фэнтези, приключения, 2012) [DVD5, Дублированный, Sub]
Рейтинг:
(голосов: 1)



[img]{THEME}/images/logopost.png[/img]



Хоббит: Нежданное путешествие / The Hobbit: An Unexpected Journey
From the smallest beginnings come the greatest legends

Год выпуска: 2012
Страна: США
Производство: Metro-Goldwyn-Mayer (MGM), New Line Cinema, WingNut Films
Жанр: Фэнтези, приключения
Продолжительность: 02:42:39
Перевод: Дублированный
Субтитры: Вшитые отключаемые: Русский (форсированные, полные), английский, украинский (форсированные), эстонский, греческий, латышский, литовский
Меню: русское анимированное и озвученное

Режиссёр: Питер Джексон
В ролях: Мартин Фриман, Иэн МакКеллен, Ричард Армитэдж, Джеймс Несбитт, Кен Стотт, Кейт Бланшетт, Элайджа Вуд, Хьюго Уивинг, Кристофер Ли, Энди Серкис

Описание: Фильм повествует о путешествии Бильбо Бэггинса, который пускается в поход, целью которого является отвоевание утраченного королевства гномов Эребор у зловещего дракона Смога. Совершенно неожиданно с хоббитом налаживает контакт волшебник Гэндальф Серый. Так Бильбо находит себя, присоединяясь к компании тринадцати гномов, возглавляемых легендарным воином, Торином Дубощитом. Их путешествие проляжет через Дикий Край, через предательские земли, населенные гоблинами и орками, смертоносными варгами и гигантскими пауками, народом, меняющим шкуры, и волшебниками. И хотя их цель находится на Востоке среди пустошей Одинокой Горы, сначала им придется выбраться из туннелей гоблинов, где Бильбо встретит существо, которое изменит его жизнь навсегда… Голлума.Скриншоты меню ▼MediaInfo ▼Общее
Полное имя : D:ФИЛЬМЫThe Hobbit. An Unexpected Journey (2012) DVD5VIDEO_TSVTS_01_2.VOB
Формат : MPEG-PS
Размер файла : 1024 Мбайт
Продолжительность : 33 м.
Режим общего битрейта : Переменный
Общий поток : 4257 Кбит/сек

Видео
Идентификатор : 224 (0xE0)
Формат : MPEG Video
Версия формата : Version 2
Профиль формата : [email protected]
Параметр BVOP формата : Да
Параметр матрицы формата : Выборочная
Параметр GOP формата : M=3, N=12
Продолжительность : 33 м.
Вид битрейта : Переменный
Битрейт : 3788 Кбит/сек
Максимальный битрейт : 7683 Кбит/сек
Ширина : 720 пикселей
Высота : 576 пикселей
Соотношение сторон : 16:9
Частота кадров : 25,000 кадров/сек
Стандарт вещания : PAL
Цветовое пространство : YUV
Субдискретизация насыщенности : 4:2:0
Битовая глубина : 8 бит
Тип развёртки : Чересстрочная
Порядок развёртки : Верхнее поле первое
Метод сжатия : С потерями
Бит/(Пиксели*Кадры) : 0.365
TimeCode_FirstFrame : 00:38:42:20
TimeCode_Source : Group of pictures header
Размер потока : 911 Мбайт (89%)

Аудио
Идентификатор : 189 (0xBD)-129 (0x81)
Формат : AC-3
Формат/Информация : Audio Coding 3
Расширение режима : CM (complete main)
Параметр Endianness формата : Big
Режим смешивания : DVD-Video
Продолжительность : 33 м.
Вид битрейта : Постоянный
Битрейт : 384 Кбит/сек
Каналы : 6 каналов
Расположение каналов : Front: L C R, Side: L R, LFE
Частота : 48,0 КГц
Битовая глубина : 16 бит
Метод сжатия : С потерями
Задержка видео : -544 мс.
Размер потока : 92,4 Мбайт (9%)

Текст #1
Идентификатор : 189 (0xBD)-32 (0x20)
Формат : RLE
Формат/Информация : Run-length encoding
Режим смешивания : DVD-Video

Текст #2
Идентификатор : 189 (0xBD)-33 (0x21)
Формат : RLE
Формат/Информация : Run-length encoding
Режим смешивания : DVD-Video

Текст #3
Идентификатор : 189 (0xBD)-34 (0x22)
Формат : RLE
Формат/Информация : Run-length encoding
Режим смешивания : DVD-Video

Текст #4
Идентификатор : 189 (0xBD)-35 (0x23)
Формат : RLE
Формат/Информация : Run-length encoding
Режим смешивания : DVD-Video

Текст #5
Идентификатор : 189 (0xBD)-36 (0x24)
Формат : RLE
Формат/Информация : Run-length encoding
Режим смешивания : DVD-Video

Текст #6
Идентификатор : 189 (0xBD)-37 (0x25)
Формат : RLE
Формат/Информация : Run-length encoding
Режим смешивания : DVD-Video

Меню

DVDINFO ▼
Title: The Hobbit. An Unexpected Journey (2012) DVD5
Size: 4.37 Gb ( 4 585 778,00 KBytes ) - DVD-5
Enabled regions: 1, 2, 3, 4, 5, 6, 7, 8

VTS_01 :
Play Length: 02:42
4efead0f6b8a7406863f4e478dbe4cc3b33f3befХоббит: Нежданное путешествие / The Hobbit: An Unexpected Journey (Питер Джексон, Фэнтези, приключения, 2012) [DVD5, Дублированный, Sub] Хоббит: Нежданное путешествие / The Hobbit: An Unexpected Journey (Питер Джексон, Фэнтези, приключения, 2012) [DVD5, Дублированный, Sub] " />

Аплоадер: Админ, дата: 25-04-2013, 16:33, торрент скачан: 359 раз

Понравилась раздача? Посмотрите эти:
  • Хоббит: Нежданное путешествие [Расширенная версия] / The Hobbit: An Unexpec ...
  • Хоббит: Нежданное путешествие [Расширенная версия] / The Hobbit: An Unexpec ...
  • Хоббит: Нежданное путешествие [Расширенная версия] / The Hobbit: An Unexpec ...
  • Хоббит: Нежданное путешествие [Расширенная версия] / The Hobbit: An Unexpec ...
  • Хоббит: Нежданное путешествие / The Hobbit: An Unexpected Journey [Extended ...
  • Хоббит: Нежданное путешествие / The Hobbit: An Unexpected Journey [Extended ...
  • Хоббит: Нежданное путешествие [Расширенная версия] / The Hobbit: An Unexpec ...
  • Хоббит: Нежданное путешествие [Расширенная версия] / The Hobbit: An Unexpec ...
  • Хоббит: Нежданное путешествие [Расширенная версия] / The Hobbit: An Unexpec ...
  • Хоббит: Нежданное путешествие / The Hobbit: An Unexpected Journey (Питер Дж ...
  • [3D] Хоббит: Нежданное путешествие 3D / The Hobbit: An Unexpected Journey 3 ...
  • Хоббит: Нежданное путешествие / The Hobbit: An Unexpected Journey (Питер Дж ...
  • Хоббит: Нежданное путешествие / The Hobbit: An Unexpected Journey (Питер Дж ...
  • [3D] Хоббит: Нежданное путешествие / The Hobbit: An Unexpected Journey (Пит ...
  • Хоббит: Нежданное путешествие / The Hobbit: An Unexpected Journey (Питер Дж ...
  • [3D] Хоббит: Нежданное путешествие / The Hobbit: An Unexpected Journey (Пит ...
  • Хоббит: Нежданное путешествие / The Hobbit: An Unexpected Journey (Питер Дж ...
  • Хоббит: Нежданное путешествие / The Hobbit: An Unexpected Journey (Питер Дж ...
  • Хоббит: Нежданное путешествие / The Hobbit: An Unexpected Journey (Питер Дж ...
  • Хоббит: Нежданное путешествие / The Hobbit: An Unexpected Journey (Питер Дж ...
  • Хоббит: Нежданное путешествие / The Hobbit: An Unexpected Journey (Питер Дж ...
  • Хоббит: Нежданное путешествие / The Hobbit: An Unexpected Journey (Питер Дж ...
  • Хоббит: Нежданное путешествие / The Hobbit: An Unexpected Journey (Питер Дж ...
  • [3D] Хоббит: Нежданное путешествие 3D трейлер / The Hobbit: An Unexpected J ...
  • [Трейлер #1] Хоббит: Нежданное путешествие / The Hobbit: An Unexpected Jour ...
  • Информация
    Посетители, находящиеся в группе Гости, не могут оставлять комментарии к данной публикации.