вход на сайт

Имя пользователя :
Пароль :

Восстановление пароля Регистрация
Джанго освобождённый / Django Unchained (Квентин Тарантино, Драма, Вестерн, Комедия, Приключения , 2012) [DVD5 , Профессиональный (Полное Дублирование)]
Рейтинг:
(голосов: 1)



[img]{THEME}/images/logopost.png[/img]



Джанго освобождённый / Django Unchained
«Они забрали его свободу. Он заберёт у них всё»


Год выпуска: 2012
Страна: США
Производство: Brown 26 Productions
Жанр: Драма, Вестерн, Комедия, Приключения
Продолжительность: 02:45:11
Перевод: Профессиональный (Полное Дублирование)
Субтитры: нет
Меню: русское анимированное и озвученное

Режиссёр: Квентин Тарантино
В ролях:Джейми Фокс, Кристоф Вальц, Леонардо ДиКаприо, Керри Вашингтон, Сэмюэл Л, Джексон, Уолтон Гоггинс, Деннис Кристофер, Джеймс Римар, Дон Джонсон, Франко Неро ...

Описание: Эксцентричный охотник за головами, также известный как «Дантист», промышляет отстрелом самых опасных преступников на Диком Западе. Работенка пыльная, и без надежного помощника ему не обойтись. Но как найти такого и желательно не очень дорогого? Беглый раб по имени Джанго — прекрасная кандидатура. Правда, у нового помощника свои мотивы — кое с чем надо разобраться… Качество: DVD5
Формат: DVD Video
Видео кодек: MPEG2
Аудио кодек: AC3
Формат видео: 720х480, (NTSC 16:9), MPEG2 Video, 23.976 fps, ~ 4492 kbps avg, 0.468 bit/pixel
Формат аудио: Русский: 48 kHz, AC3 Dolby Digital, 6 ch, 448 kbps avg [Профессиональный (Полное Дубдирование)]

Media info ▼Общее
Полное имя : D: DownloadsДжанго ОсвобождённыйVIDEO_TSVTS_01_2.VOB
Формат : MPEG-PS
Размер файла : 1024 Мбайт
Продолжительность : 35 м.
Общий поток : 4020 Кбит/сек

Видео
Идентификатор : 224 (0xE0)
Формат : MPEG Video
Версия формата : Version 2
Профиль формата : [email protected]
Параметр BVOP формата : Да
Параметр матрицы формата : По умолчанию
Параметры GOP формата : M=3, N=18
Продолжительность : 35 м.
Вид битрейта : Переменный
Битрейт : 4492 Кбит/сек
Номинальный битрейт : 8000 Кбит/сек
Ширина : 720 пикс.
Высота : 480 пикс.
Соотношение сторон : 16:9
Частота кадров : 29,970 кадр/сек
Стандарт вещания : NTSC
Цветовое пространство : YUV
Подвыборка цветности : 4:2:0
Битовая глубина : 8 бит
Тип развёртки : Прогрессивная
Метод сжатия : С потерями
Бит/(Пиксели*Кадры) : 0.468
Размер потока : 889 Мбайт (87%)

Аудио
Идентификатор : 189 (0xBD)-128 (0x80)
Формат : AC-3
Формат/Информация : Audio Coding 3
Расширение режима : CM (complete main)
Режим смешивания : DVD-Video
Продолжительность : 35 м.
Вид битрейта : Постоянный
Битрейт : 448 Кбит/сек
Каналы : 6 каналов
Расположение каналов : Front: L C R, Side: L R, LFE
Частота : 48,0 КГц
Битовая глубина : 16 бит
Метод сжатия : С потерями
Задержка видео : -441 мс.
Размер потока : 114 Мбайт (11%)
Язык : Русский
DVD info ▼
Title: _Vypusk_2012_
Size: 4.36 Gb ( 4 571 130 KBytes ) - DVD-5
Enabled regions: 1, 2, 3, 4, 5, 6, 7, 8

VTS_01 :
Play Length: 02:45:12
Video: NTSC 16:9 (720x480) VBR, Auto Pan&Scan
Audio:
Not specified (Dolby AC3, 6 ch)

Menu Video:
NTSC 4:3 (720x480) VBR
Auto Pan&Scan, Auto Letterboxed
MenuLanguage Unit :
Root Menu

Скриншоты меню ▼


4063157d5d9c3884da9e56c93b40d93dd1a91f95Джанго освобождённый / Django Unchained (Квентин Тарантино, Драма, Вестерн, Комедия, Приключения , 2012) [DVD5 , Профессиональный (Полное Дублирование)] Джанго освобождённый / Django Unchained (Квентин Тарантино, Драма, Вестерн, Комедия, Приключения , 2012) [DVD5 , Профессиональный (Полное Дублирование)] " />

Аплоадер: Админ, дата: 3-12-2013, 21:06, торрент скачан: 359 раз

Понравилась раздача? Посмотрите эти:
  • Джанго освобожденный / Django Unchained (Квентин Тарантино, драма, вестерн, ...
  • Джанго освобожденный / Django Unchained (Квентин Тарантино, Драма, вестерн, ...
  • Джанго освобожденный / Django Unchained (Квентин Тарантино, драма, вестерн, ...
  • Джанго освобожденный / Django Unchained (Квентин Тарантино, Драма, вестерн, ...
  • Джанго освобожденный / Django Unchained (Квентин Тарантино, драма, вестерн, ...
  • Джанго освобожденный / Django Unchained (Квентин Тарантино, Драма, вестерн, ...
  • Джанго освобожденный / Django Unchained (Квентин Тарантино, Драма, вестерн, ...
  • Джанго освобожденный / Django Unchained (Квентин Тарантино, Драма, вестерн, ...
  • Джанго освобожденный / Django Unchained (Квентин Тарантино, Драма, вестерн, ...
  • Джанго освобожденный / Django Unchained (Квентин Тарантино, Драма, вестерн, ...
  • Джанго освобожденный / Django Unchained (Квентин Тарантино, Драма, вестерн, ...
  • Джанго освобожденный / Django Unchained (Квентин Тарантино, драма, комедия, ...
  • Джанго освобожденный / Django Unchained (Квентин Тарантино, драма, вестерн, ...
  • Джанго освобожденный / Django Unchained (Квентин Тарантино, Драма, комедия, ...
  • Джанго освобожденный / Django Unchained (Квентин Тарантино, драма, вестерн, ...
  • [iPhone, iPod] Джанго освобожденный / Django Unchained (Квентин Тарантино, ...
  • Джанго освобожденный / Django Unchained (Квентин Тарантино, Драма, комедия, ...
  • Джанго освобожденный / Django Unchained (Квентин Тарантино, Драма, вестерн, ...
  • [EN] Джанго освобожденный / Django Unchained (Квентин Тарантино, драма, вес ...
  • Джанго освобожденный / Django Unchained (Квентин Тарантино, драма, комедия, ...
  • Джанго освобожденный / Django Unchained (Квентин Тарантино, драма, комедия, ...
  • Джанго освобожденный / Django Unchained (Квентин Тарантино, драма, комедия, ...
  • Джанго освобожденный / Django Unchained (Квентин Тарантино, драма, комедия, ...
  • Джанго освобожденный / Django Unchained (Квентин Тарантино, Драма, комедия, ...
  • Джанго освобожденный / Django Unchained (Квентин Тарантино, Драма, комедия, ...
  • Информация
    Посетители, находящиеся в группе Гости, не могут оставлять комментарии к данной публикации.