вход на сайт

Имя пользователя :
Пароль :

Восстановление пароля Регистрация
Американский пирог: Все в сборе / American Reunion (Джон Харвитц, Хейден Шлоссберг, Комедия, 2012) [DVD9, Профессиональный (Полное дублирование)]
Рейтинг:
(голосов: 1)



[img]{THEME}/images/logopost.png[/img]




Американский пирог: Все в сборе/American Reunion

«Самый лакомый кусочек на конец»

Год выхода: 2012
Страна США
Производство: Universal Pictures, Practical Pictures, Relativity Media
Жанр: комедия

Режиссер: Джон Харвитц, Хейден Шлоссберг
В ролях: Джейсон Биггз, Элисон Хэннигэн, Крис Клейн, Томас Иэн Николас, Тара Рид, Шонн Уильям Скотт, Мена Сувари, Эдди Кэй Томас, Джон Чо, Дженнифер Кулидж

Перевод: Профессиональный (Полное дублирование)
Субтитры: Русский, английский, польский, арабский, датский, финский, исландский, норвежский, шведский, эстонский, латышский, литовский, украинский, хинди

О фильме: Герои «Американского пирога» встречаются вновь спустя несколько лет. Они докажут, что даже время и расстояние не в силах разрушить их дружбу. Летом 1999-го четверо мичиганских парней решили расстаться с невинностью. Прошли годы, и теперь друзья вернулись домой уже повзрослевшими, чтобы вспомнить прошлое и оторваться на полную катушку.Качество: DVD9
Продолжительность: 01:48:10


Формат: DVD Video
Видео кодек: MPEG2
Аудио кодек: AC3
Видео: PAL 16:9 (720x576) VBR, Auto Letterboxed
Аудио#1:48 kHz AC3 5.1,Dolby Digital,16 бит/ 6 каналов ~384 kbps [Английский - оригинал]
Аудио#2:48 kHz AC3 5.1,Dolby Digital, /16 бит/ 6 каналов ~384 kbps [Русский - дублированный]
Аудио#3:48 kHz AC3 5.1,Dolby Digital, /16 бит/ 6 каналов ~384 kbps [Польский - одноголосый закадровый]
Аудио#4:48 kHz AC3 2.0,Dolby Digital, /16 бит/ 2 каналов, + LFE ch ~192 kbps [Английский - комментарии]

Дополнительные материалы... ▼

* Удаленные эпизоды
* Смешные моменты

MediaInfo ▼
Полное имя : D:Американский.пирог.Все.в.сборе-American.Reunion.(2012).DVD9VIDEO_TSVTS_06_2.VOB
Формат : MPEG-PS
Размер файла : 1024 Мбайт
Продолжительность : 16 м.
Режим общего битрейта : Переменный
Общий поток : 8863 Кбит/сек

Видео
Идентификатор : 224 (0xE0)
Формат : MPEG Video
Версия формата : Version 2
Профиль формата : [email protected]
Параметр BVOP формата : Да
Параметр матрицы формата : Выборочная
Продолжительность : 16 м.
Вид битрейта : Переменный
Битрейт : 7343 Кбит/сек
Максимальный битрейт : 9800 Кбит/сек
Ширина : 720 пикселей
Высота : 576 пикселей
Соотношение сторон : 16:9
Частота кадров : 25,000 кадров/сек
Стандарт вещания : PAL
Цветовое пространство : YUV
Субдискретизация насыщенности : 4:2:0
Битовая глубина : 8 бит
Тип развёртки : Чересстрочная
Порядок развёртки : Верхнее поле первое
Метод сжатия : С потерями
Бит/(Пиксели*Кадры) : 0.708
Размер потока : 848 Мбайт (83%)

Аудио #1
Идентификатор : 189 (0xBD)-128 (0x80)
Формат : AC-3
Формат/Информация : Audio Coding 3
Расширение режима : CM (complete main)
Параметр Endianness формата : Big
Режим смешивания : DVD-Video
Продолжительность : 16 м.
Вид битрейта : Постоянный
Битрейт : 384 Кбит/сек
Каналы : 6 каналов
Расположение каналов : Front: L C R, Side: L R, LFE
Частота : 48,0 КГц
Битовая глубина : 16 бит
Метод сжатия : С потерями
Задержка видео : -592 мс.
Размер потока : 44,4 Мбайт (4%)

Аудио #2
Идентификатор : 189 (0xBD)-129 (0x81)
Формат : AC-3
Формат/Информация : Audio Coding 3
Расширение режима : CM (complete main)
Параметр Endianness формата : Big
Режим смешивания : DVD-Video
Продолжительность : 16 м.
Вид битрейта : Постоянный
Битрейт : 384 Кбит/сек
Каналы : 6 каналов
Расположение каналов : Front: L C R, Side: L R, LFE
Частота : 48,0 КГц
Битовая глубина : 16 бит
Метод сжатия : С потерями
Задержка видео : -592 мс.
Размер потока : 44,4 Мбайт (4%)

Аудио #3
Идентификатор : 189 (0xBD)-130 (0x82)
Формат : AC-3
Формат/Информация : Audio Coding 3
Расширение режима : CM (complete main)
Параметр Endianness формата : Big
Режим смешивания : DVD-Video
Продолжительность : 16 м.
Вид битрейта : Постоянный
Битрейт : 384 Кбит
00aba3c23e20b92ddc44ada7fea1718fe32f57acАмериканский пирог: Все в сборе / American Reunion (Джон Харвитц, Хейден Шлоссберг, Комедия, 2012) [DVD9, Профессиональный (Полное дублирование)] Американский пирог: Все в сборе / American Reunion (Джон Харвитц, Хейден Шлоссберг, Комедия, 2012) [DVD9, Профессиональный (Полное дублирование)] " />

Аплоадер: Админ, дата: 9-08-2012, 03:58, торрент скачан: 359 раз

Понравилась раздача? Посмотрите эти:
  • Линкольн / Lincoln (Стивен Спилберг, драма, военный, биография, история, 20 ...
  • Американский пирог: Все в сборе [Расширенная версия] / American Reunion [Un ...
  • Американский пирог: Все в сборе [Расширенная версия] / American Reunion [UN ...
  • Американский пирог: Все в сборе / American Reunion (Джон Харвитц, Хейден Ш ...
  • Американский пирог: Все в сборе / American Reunion (Джон Харвитц, Хейден Шл ...
  • Американский пирог: Все в сборе / American Reunion (Джон Харвитц, Хейден Шл ...
  • Американский пирог: Все в сборе / American Reunion (Джон Харвитц, Хейден Шл ...
  • Шпион, выйди вон! / Tinker Tailor Soldier Spy (Томас Альфредсон / Tomas Alf ...
  • То лето страсти / Un été brûlant (Филипп Гаррель, драма, 2011) [DVD9, Профе ...
  • Камень (Вячеслав Каминский, Фантастика, триллер, криминал, 2012) [DVD9, Не ...
  • 2016: Конец ночи / Hell (Тим Фельбаум / Tim Fehlbaum, ужасы, фантастика, тр ...
  • Клятва / The Vow (Майкл Сакси, драма, мелодрама, 2012) [DVD5, Профессиональ ...
  • Экстрасенс / The Awakening (Ник Мерфи, ужасы, триллер, 2011) [DVD9, Професс ...
  • Американский пирог: Все в сборе / American Reunion (Джон Харвитц, Комедия, ...
  • Американский пирог: Все в сборе [Расширенная версия] / American Reunion [UN ...
  • Американский пирог: Все в сборе [Расширенная версия] / American Reunion [UN ...
  • Американский пирог: Все в сборе / American Reunion (Джон Харвитц, Хейден Ш ...
  • Американский пирог: Все в сборе / American Reunion (Джон Харвитц, Хейден Шл ...
  • Американский пирог: Все в сборе / American Reunion (Джон Харвитц, Хейден Ш ...
  • Американский пирог: Все в сборе [Расширенная версия] / American Reunion [UN ...
  • Информация
    Посетители, находящиеся в группе Гости, не могут оставлять комментарии к данной публикации.