вход на сайт

Имя пользователя :
Пароль :

Восстановление пароля Регистрация
Гарри Поттер и Дары смерти: Часть 1 / Harry Potter and the Deathly Hallows: Part 1 (Дэвид Йэтс, фэнтези, драма, приключения, 2010) [DVD9, Дублированный [лицензия]]
Рейтинг:
(голосов: 1)



[img]{THEME}/images/logopost.png[/img]



Гарри Поттер и Дары смерти: Часть 1 / Harry Potter and the Deathly Hallows: Part 1

«Опасность повсюду»

Год выпуска: 2010
Страна: США, Великобритания
Производство: Heyday Films, Warner Bros. Pictures
Жанр: фэнтези, драма, приключения
Продолжительность: 02:20:06
Перевод: Профессиональный (дублированный) [Лицензия]
Субтитры: русские, английские, арабские, иврит, португальские

Режиссёр: Дэвид Йэтс
В ролях: Дэниэл Рэдклифф, Эмма Уотсон, Том Фелтон, Руперт Гринт, Хелена Бонем, Картер Рэйф, Файнс Клеманс, Поэзи Бонни, Райт Рис Иванс, Алан Рикман

Описание: Гарри Поттера ждёт самое страшное испытание в жизни — смертельная схватка с Волан-де-Мортом. Ждать помощи не от кого — Гарри одинок, как никогда… Друзья и враги Гарри предстают в совершенно неожиданном свете. Граница между Добром и Злом становится всё призрачнее...



Бонусы: Нет

"DVDInfo:" ▼
Title: F
Size: 6.89 Gb ( 7 223 084 KBytes ) - DVD-9
Enabled regions: 1, 2, 3, 4, 5, 6, 7, 8

VTS_01 :
Play Length: 02:20:06
Video: PAL 16:9 (720x576) VBR, Auto Letterboxed
Audio:
English (Dolby AC3, 6 ch)
Russian (Dolby AC3, 6 ch)
Ukrainian (Dolby AC3, 6 ch)
Subtitles:
English
Arabic
Hebrew
Portugues
Russian
Russian

VTS_02 :
Play Length: 00:00:10+00:00:12
Video: PAL 16:9 (720x576) VBR, Auto Letterboxed
Audio:
Not specified (Dolby AC3, 6 ch)
Subtitles:
Not specified

"Скриншоты меню:" ▼

"MediaInfo:" ▼
Общее
Полное имя : E:Новинки 2011Garri.Potter.i.dary.smerti.chast.1.2010.DVD9VIDEO_TSVTS_01_2.VOB
Формат : MPEG-PS
Размер файла : 1024 Мбайт
Продолжительность : 20 м.
Общий поток : 7063 Кбит/сек

Видео
Идентификатор : 224 (0xE0)
Формат : MPEG Video
Версия формата : Version 2
Профиль формата : [email protected]
Параметр BVOP формата : Да
Параметр матрицы формата : По умолчанию
Параметры GOP формата : M=3, N=15
Продолжительность : 20 м.
Вид битрейта : Переменный
Битрейт : 5771 Кбит/сек
Номинальный битрейт : 7500 Кбит/сек
Ширина : 720 пикс.
Высота : 576 пикс.
Соотношение сторон : 16:9
Частота кадров : 25,000 кадр/сек
Стандарт вещания : PAL
Цветовое пространство : YUV
Подвыборка цветности : 4:2:0
Битовая глубина : 8 бит
Тип развёртки : Прогрессивная
Порядок развёртки : Верхнее поле первое
Метод сжатия : С потерями
Бит/(Пиксели*Кадры) : 0.557
Размер потока : 836 Мбайт (82%)

Аудио #1
Идентификатор : 189 (0xBD)-128 (0x80)
Формат : AC-3
Формат/Информация : Audio Coding 3
Расширение режима : CM (complete main)
Режим смешивания : DVD-Video
Продолжительность : 20 м.
Вид битрейта : Постоянный
Битрейт : 384 Кбит/сек
Канал(ы) : 6 канала(ов)
Расположение каналов : Front: L C R, Side: L R, LFE
Частота : 48,0 КГц
Битовая глубина : 16 бит
Метод сжатия : С потерями
Задержка видео : -408 мс.
Размер потока : 55,7 Мбайт (5%)

Аудио #2
Идентификатор : 189 (0xBD)-129 (0x81)
Формат : AC-3
Формат/Информация : Audio Coding 3
Расширение режима : CM (complete main)
Режим смешивания : DVD-Video
Продолжительность : 20 м.
Вид битрейта : Постоянный
Битрейт : 384 Кбит/сек
Канал(ы) : 6 канала(ов)
Расположение каналов : Front: L C R, Side: L R, LFE
Частота : 48,0 КГц
Битовая глубина : 16 бит
Метод сжатия : С потерями
Задержка видео : -408 мс.
Размер потока : 55,7 Мбайт (5%)

Аудио #3
Идентификатор : 189 (0xBD)-130 (0x82)
Формат : AC-3
Формат/Информация : Audio Coding 3
Расширение режима : CM (complete main)
Режим смешивания : DVD-Video
Продолжительность : 20 м.
Вид битрейта : Постоянный
Битрейт : 384 Кбит/сек
Канал(ы) : 6 канала(ов)
Расположение каналов : Front: L C R, Side: L R, LFE
Частота : 48,0 КГц
Битовая глубина : 16 бит
Метод сжатия : С потерями
Задержка видео : -408 мс.
Размер потока : 55,7 Мбайт (5%)

Релиз группы:

Качество: DVD9 R5
Формат: DVD Video
Видео кодек: MPEG2
Аудио кодек: AC3
Формат видео: PAL 16:9 (720x576(0.557)) MPEG Video,25,000 кадр/сек, 5771 Кбит/сек
Формат аудио: Russian / English / Ukrainian (Dolby
082b633fefec5fac8f4714220649641bf7896b95Гарри Поттер и Дары смерти: Часть 1 / Harry Potter and the Deathly Hallows: Part 1 (Дэвид Йэтс, фэнтези, драма, приключения, 2010) [DVD9, Дублированный [лицензия]] Гарри Поттер и Дары смерти: Часть 1 / Harry Potter and the Deathly Hallows: Part 1 (Дэвид Йэтс, фэнтези, драма, приключения, 2010) [DVD9, Дублированный [лицензия]] " />

Аплоадер: Админ, дата: 6-04-2011, 12:10, торрент скачан: 359 раз

Понравилась раздача? Посмотрите эти:
  • Гарри Поттер и Дары смерти: Часть 1 / Harry Potter and the Deathly Hallows: ...
  • Гарри Поттер и Дары смерти: Часть 1 / Harry Potter and the Deathly Hallows: ...
  • Гарри Поттер и Дары смерти: Часть 1 / Harry Potter and the Deathly Hallows: ...
  • Гарри Поттер и Дары смерти: Часть 1 / Harry Potter and the Deathly Hallows ...
  • Гарри Поттер и Дары смерти: Часть 1 / Harry Potter and the Deathly Hallows ...
  • Гарри Поттер и Дары смерти: Часть 1 / Harry Potter and the Deathly Hallows: ...
  • Гарри Поттер и Дары смерти: Часть 1 / Harry Potter and the Deathly Hallows: ...
  • Гарри Поттер и Дары смерти: Часть 1 / Harry Potter and the Deathly Hallows: ...
  • Гарри Поттер и Дары смерти: Часть 1 / Harry Potter and the Deathly Hallows: ...
  • Гарри Поттер и Дары смерти: Часть 1 / Harry Potter and the Deathly Hallows: ...
  • Гарри Поттер и Дары смерти: Часть 1 / Harry Potter and the Deathly Hallows: ...
  • Гарри Поттер и Дары смерти: Часть 1 / Harry Potter and the Deathly Hallows: ...
  • Гарри Поттер и Дары смерти: Часть 1 / Harry Potter and the Deathly Hallows: ...
  • Гарри Поттер и Дары смерти: Часть 2 / Harry Potter and the Deathly Hallows: ...
  • Гарри Поттер и Дары смерти: Часть 2 / Harry Potter and the Deathly Hallows: ...
  • Гарри Поттер и Дары смерти: Часть II / Harry Potter and the Deathly Hallows ...
  • Гарри Поттер и Дары смерти: Часть 2 / Harry Potter and the Deathly Hallows: ...
  • [ENG] Гарри Поттер и Дары смерти: Часть II / Harry Potter and the Deathly H ...
  • [3D] Гарри Поттер и Дары смерти Часть I 3Д / Harry Potter and the Deathly H ...
  • [3D] Гарри Поттер и дары смерти: Часть I 3D / Harry Potter and the Deathly ...
  • Информация
    Посетители, находящиеся в группе Гости, не могут оставлять комментарии к данной публикации.