вход на сайт

Имя пользователя :
Пароль :

Восстановление пароля Регистрация
Брат якудзы / Brother (Такеши Китано, триллер, драма, криминал, 2000) [HDRip, Профессиональный (двухголосый, закадровый)]
Рейтинг:
(голосов: 1)



[img]{THEME}/images/logopost.png[/img]



Брат якудзы / Brother

Год выпуска: 2000
Страна: США, Япония, Великобритания
Производство: Office Kitano
Жанр: триллер, драма, криминал

Режиссёр: Такеши Китано
В ролях: Такеши Китано, Омар Эппс, Куроудо Маки, Масая Като, Ройял Уоткинс, Ломбардо Бойяр, Сусуму Тэрадзима, Рен Осуги, Рё Исибаси, Татьяна Али, Джеймс Шигета, Тетсуя Ватари

Перевод: Профессиональный (двухголосый, закадровый)
Субтитры: нет

Описание: После разгрома родного мафиозного клана боевик Аники Ямамото по прозвищу Старший Брат бежит из Японии в Америку. Здесь его встречает чужой, но не менее жестокий мир безжалостной борьбы за власть в преступной среде, в которой Ямамото решительно отвоевывает себе место, следуя древнему кодексу «якудзы».

Полагаясь только на свои силы и дорожа верными друзьями, он в одиночку ведет войну с врагами, зная, что в самом конце кровавого пути его ждет триумф или смерть.



Качество: HDRip
Продолжительность: 01:53:20 час.

Формат: AVI
Видео кодек: XviD
Аудио кодек: MP3
Видео: 656х352 (1,864:1), 24 fps, XviD ~ 787 kbps avg, 0.142 bit/pixel
Аудио: 48 kHz, MP3, 2 ch, 128.00 kbpsMediaInfo ▼TextОбщее
Полное имя : Brat.jakudzy.2000.HDRip-745.mkv.avi
Формат : AVI
Формат/Информация : Audio Video Interleave
Размер файла : 749 Мбайт
Продолжительность : 1 ч. 53 м.
Общий поток : 924 Кбит/сек
Программа кодирования : VirtualDubMod 1.5.10.3 | www.virtualdub-fr.org || (build 2550/release)
Библиотека кодирования : VirtualDubMod build 2550/release
Видео
Идентификатор : 0
Формат : MPEG-4 Visual
Профиль формата : Advanced [email protected]
Параметр BVOP формата : 1
Параметр QPel формата : Нет
Параметр GMC формата : Без точки перехода
Параметр матрицы формата : Выборочная
Идентификатор кодека : XVID
Идентификатор кодека/Подсказка : XviD
Продолжительность : 1 ч. 53 м.
Битрейт : 787 Кбит/сек
Ширина : 656 пикселей
Высота : 352 пикселя
Соотношение сторон : 1,864
Частота кадров : 24,000 кадра/сек
Цветовое пространство : YUV
Субдискретизация насыщенности : 4:2:0
Битовая глубина : 8 бит
Тип развёртки : Прогрессивная
Метод сжатия : С потерями
Бит/(Пиксели*Кадры) : 0.142
Размер потока : 638 Мбайт (85%)
Библиотека кодирования : XviD 65
Аудио
Идентификатор : 1
Формат : MPEG Audio
Версия формата : Version 1
Профиль формата : Layer 3
Идентификатор кодека : 55
Идентификатор кодека/Подсказка : MP3
Продолжительность : 1 ч. 53 м.
Вид битрейта : Постоянный
Битрейт : 128 Кбит/сек
Каналы : 2 канала
Частота : 48,0 КГц
Метод сжатия : С потерями
Размер потока : 104 Мбайт (14%)
Выравнивание : Соединение по промежуткам
Продолжительность промежутка : 42 мс. (1,00 видеокадр)
Время предзагрузки промежутка : 504 мс.
Библиотека кодирования : L3.99r
Настройки программы : -m s -V 4 -q 2 -lowpass 17 -b 128





e5a9ba179de90e67b4ab656c2866ac71afb8ac01Брат якудзы / Brother (Такеши Китано, триллер, драма, криминал, 2000) [HDRip, Профессиональный (двухголосый, закадровый)] Брат якудзы / Brother (Такеши Китано, триллер, драма, криминал, 2000) [HDRip, Профессиональный (двухголосый, закадровый)] " />

Аплоадер: Админ, дата: 2-01-2013, 18:21, торрент скачан: 359 раз

Понравилась раздача? Посмотрите эти:
  • Околофутбола (Антон Борматов, драма, криминал, 2013) [DVDRip, Не требуется] ...
  • Брат якудзы / Brother (Такеши Китано, Триллер, драма, криминал, 2000) [BDRi ...
  • Грязная кампания за честные выборы / The Campaign (Джей Роуч , Комедия,201 ...
  • Беспредел / Autoreiji (Такеши Китано, криминал, драма, триллер, 2010) [HDRi ...
  • Брат якудзы / Brother (Такеши Китано, Триллер, драма, криминал, 2000) [HDRi ...
  • Брат якудзы / Brother (Такеши Китано, триллер, драма, криминал, 2000) [НDRi ...
  • Брат якудзы / Brother (Такеши Китано, триллер, драма, криминал, 2000) [HDRi ...
  • Фейерверк / Hana bi ( Такеши Китано )[1997., Триллер, Драма, Криминал, DVDR ...
  • Рождённый свободным / The Colt (Елена Ланская, драма, боевик, история, 200 ...
  • Сонатина / Sonatine (Такеши Китано, Боевик, Драма, Триллер, 1993) [DVDRip-A ...
  • Жестокий полицейский / Sono otoko, kyobo ni tsuki (Такеши Китано, боевик, т ...
  • Брат якудзы / Brother (Такеши Китано, триллер, 2000) [BDRip-AVC, Авторский ...
  • Злые птицы: Хэллоуин / Angry Birds: HamOWeen (Джей Ройвайнен, Мультфильм, к ...
  • Бог любви / God of Love (Люк Мэзени, Короткометражка, фэнтези, комедия, мел ...
  • Покорить высоту / Take It to the Limit (Сэм Кит / Sam Kieth, семейный, 2000 ...
  • Брат якудзы / Brother ( Такеши Китано / триллер, драма / 2000г) [DVDRip , ...
  • Беспредел / Outrage (Такеши Китано, драма, криминал, 2010) [HDRip-AVC, Русс ...
  • Беспредел / Outrage (Такеши Китано, драма, криминал, 2010) [HDRip-AVC, Русс ...
  • Детский душ / Baby Shower (Pablo Illanes, Ужасы, 2011) [DVDRip, Любительски ...
  • В лесу / The Forest (Шан Серафин, ужасы, триллер , 2011) [SATRip, Профессио ...
  • Банзай, режиссер! / Kantoku · Banzai! (Такеши Китано, драма, комедия, 2007) ...
  • Фейерверк / Hana-bi (Такеши Китано, триллер, драма, 1997) [DVDRip, Професси ...
  • Брат якудзы / Brother (Такеши Китано, триллер, драма, криминал, 2000) [DVDR ...
  • Рай и ад / Tengoku to jigoku (Акира Куросава, триллер, драма, криминал, 196 ...
  • Фейерверк / Hana-bi (Такеши Китано, триллер, драма, мелодрама, криминал, 19 ...
  • Информация
    Посетители, находящиеся в группе Гости, не могут оставлять комментарии к данной публикации.