вход на сайт

Имя пользователя :
Пароль :

Восстановление пароля Регистрация
Дорога на... / Road to (Таисия Игуменцева, Комедия, короткометражный, 2011) [SATRip, Не требуется]
Рейтинг:
(голосов: 1)



[img]{THEME}/images/logopost.png[/img]



Дорога на... / Road to

Год выпуска: 2011
Страна: Россия
Производство:
Жанр: Комедия, короткометражный

Режиссёр: Таисия Игуменцева
В ролях: Сергей Аброскин, Анна Рудь, Сергей Подколзин, Владимир Гориславец и другие

Перевод: Не требуется
Субтитры:Отсутствуют

Описание
Заурядный, ничем не примечательный молодой человек работает продавцом. С наступлением ночи он выходит во двор, окруженный высотными домами, и…
Доп. информация
Премьеры ▼премьера (мир) 24 мая 2012
премьера (РФ) 2011

Рейтинг MPAA ▼

Mediainfo ▼TextОбщее
Полное имя : F:Дорога На .avi
Формат : AVI
Формат/Информация : Audio Video Interleave
Размер файла : 241 Мбайт
Продолжительность : 31 м.
Общий поток : 1061 Кбит/сек
Название фильма : фильм Дорога На Таисии Игуменцевой.flv
Режиссёр : created.with.SUPER(C).v2012.bld.53
Программа кодирования : VirtualDubMod 1.5.10.2 (build 2540/release)
Библиотека кодирования : VirtualDubMod build 2540/release

Видео
Идентификатор : 0
Формат : MPEG-4 Visual
Профиль формата : Advanced [email protected]
Параметр BVOP формата : 2
Параметр QPel формата : Нет
Параметр GMC формата : Без точки перехода
Параметр матрицы формата : Выборочная
Режим смешивания : Сжатый битовый поток
Идентификатор кодека : XVID
Идентификатор кодека/Подсказка : XviD
Продолжительность : 31 м.
Битрейт : 924 Кбит/сек
Ширина : 720 пикселей
Высота : 400 пикселей
Соотношение сторон : 16:9
Частота кадров : 25,000 кадров/сек
Цветовое пространство : YUV
Субдискретизация насыщенности : 4:2:0
Битовая глубина : 8 бит
Тип развёртки : Прогрессивная
Метод сжатия : С потерями
Бит/(Пиксели*Кадры) : 0.128
Размер потока : 210 Мбайт (87%)
Библиотека кодирования : XviD 65

Аудио
Идентификатор : 1
Формат : MPEG Audio
Версия формата : Version 1
Профиль формата : Layer 3
Идентификатор кодека : 55
Идентификатор кодека/Подсказка : MP3
Продолжительность : 31 м.
Вид битрейта : Постоянный
Битрейт : 128 Кбит/сек
Каналы : 2 канала
Частота : 44,1 КГц
Метод сжатия : С потерями
Размер потока : 29,1 Мбайт (12%)
Выравнивание : Разделение по промежуткам
Продолжительность промежутка : 40 мс. (1,00 видеокадр)
Время предзагрузки промежутка : 500 мс.
Библиотека кодирования : LAME3.96r
Настройки программы : -m s -V 4 -q 3 -lowpass 17.5 -b 128
[/ code]

Тех. данные
Качество: SATRip
Продолжительность: 0:31:45 час.

Формат: AVI
Видео кодек: XviD
Аудио кодек: MPEG-3
Видео: 720x400 (1.80:1), 25 fps, XviD MPEG-4 ~923 kbps avg, 0.13 bit/pixe
Аудио: 444.100 kHz, MPEG Layer 3, 2 ch, ~128.00 kbps avg


|Cтол заказов| Наши раздачи| Набор в группу| Сказать спасибо|


4e3e8fd07df3372dfe8a090f99f8761151f35bbeДорога на... / Road to (Таисия Игуменцева, Комедия, короткометражный, 2011) [SATRip, Не требуется] Дорога на... / Road to (Таисия Игуменцева, Комедия, короткометражный, 2011) [SATRip, Не требуется] " />

Аплоадер: Админ, дата: 30-12-2012, 18:21, торрент скачан: 359 раз

Понравилась раздача? Посмотрите эти:
  • Миллионы Брюстера / Brewsters Millions (Уолтер Хилл, Комедия, 1985) [HDTVRi ...
  • К черному морю (Андрей Тутышкин, мелодрама, комедия, 1957) [DVDRip, не треб ...
  • Легенда о МорДу / The Legend of MorDu (Брайан Ларсен, Короткометражный, ска ...
  • Злые птицы: Хэллоуин / Angry Birds: HamOWeen (Джей Ройвайнен, Мультфильм, к ...
  • Вечерний Ургант // Сезон 2. Выпуск 56 (ТВ-шоу, 11.12.2012) [SATRip, Не треб ...
  • 1812: Уланская баллада (Олег Фесенко, приключения, 2012) [DVDRip, Не требуе ...
  • Бог любви / God of Love (Люк Мэзени, Короткометражка, фэнтези, комедия, мел ...
  • Любовь по расписанию / Поезд (Сергей Мезенцев, мелодрама, 2012) [HDTVRip, Н ...
  • Вечерний Ургант // Сезон 2. Выпуск 62 (ТВ-шоу, 19.12.2012) [SATRip, Не треб ...
  • Вечерний Ургант // Сезон 2. Выпуск 63 (ТВ-шоу, 20.12.2012) [SATRip, Не треб ...
  • Кейси Джонс / Casey Jones (Иларион Бэнкс, Короткометражка, фэнтези, боевик, ...
  • Заместитель / Il supplente (Андреа Жублин, Короткометражка, комедия, 2007) ...
  • Вечерний Ургант // Сезон 2. Выпуск 64 (ТВ-шоу, 21.12.2012) [SATRip, Не треб ...
  • Вечерний Ургант // Сезон 2. Выпуск 66 (ТВ-шоу, 25.12.2012) [SATRip, Не треб ...
  • Вечерний Ургант // Сезон 2. Выпуск 68 (ТВ-шоу, 27.12.2012) [SATRip, Не треб ...
  • Покорить высоту / Take It to the Limit (Сэм Кит / Sam Kieth, семейный, 2000 ...
  • Светлячок. Воссоединение Коричневых плащей к 10 годовщине / Firefly 10th An ...
  • А что насчет тебя? / How About You (Энтони Бирн, Драма, комедия, 2007) [DVD ...
  • Отдам котят в хорошие руки (Александр Баршак, комедия, 2012)[SATRip, не тре ...
  • Детский душ / Baby Shower (Pablo Illanes, Ужасы, 2011) [DVDRip, Любительски ...
  • В лесу / The Forest (Шан Серафин, ужасы, триллер , 2011) [SATRip, Профессио ...
  • Развод по-русски. Выпуск №78. Трагедии звездных семей (Документальный,телеп ...
  • Обратный билет (Александр Кананович, Мелодрама, 2012) [SATRip, Не требуется ...
  • Бюро находок : Потерянный и найденный / Lost and Found (Филип Хант, коротко ...
  • Человек из банки (Иван Кульнев, Комедия, 2012) [DVDRip, Не требуется]
  • Информация
    Посетители, находящиеся в группе Гости, не могут оставлять комментарии к данной публикации.