вход на сайт

Имя пользователя :
Пароль :

Восстановление пароля Регистрация
Пустыня (Михаил Кац, драма, 1991) [TVRip, Не требуется]
Рейтинг:
(голосов: 1)



[img]{THEME}/images/logopost.png[/img]



Пустыня

Год выпуска: 1991
Страна: СССР
Производство: Dyagilev Center, Одиссей, Союзтелефильм
Жанр: драма

Режиссёр: Михаил Кац
В ролях: Aleksandr Stanilov, Маис Саркисян, Сергей Русскин, Игорь Стариков, Алексей Якубов, Николай Пастухов, Владимир Шелков, Валентин Козачков, Анна Демьяненко, Игорь Старков

Перевод: Не требуется
Субтитры: Отсутствуют

Описание:
Сюжет фильма — история жизни Иисуса, его роль в духовной жизни человечества, взаимоотношения с Иудой, отношения с властью — строится на библейских мотивах и версиях рассказов Леонида Андреева «Иуда Искариот» и «Елизар».


Дополнительно:
MediaInfo ▼Text
Общее
Полное имя :D:ПустыняPustynya.avi
Формат :AVI
Размер :1.37 GiB
Продолжительность :02:08:30.120
Общий поток :1 524 Kbps
Библиотека кодирования :VirtualDub build 28312/release

Видео
Идентификатор :0
Формат :MPEG-4 Visual
Параметр BVOP формата :1
Параметр Qpel формата :No
Параметр GMC формата :0
Параметр Matrix формата :Default (H.263)
Идентификатор кодека :DX50
Продолжительность :2h 8mn 30s 120ms
Битрейт :1 322 Kbps
Ширина :680 pixels
Высота :540 pixels
Соотношение сторон :1.259
Частота кадров :25.000 fps
Глубина цвета :8 bits
Подвыборка цветности :4:2:0
Цветовое пространство :YUV
Тип развертки :Progressive
Бит/(Пиксели*Кадры) :0.144
Размер потока :1.19 GiB (87%)
Библиотека кодирования :DivX503b1988p

Аудио #1
Идентификатор :1
Формат :MPEG Audio
Идентификатор кодека :55
Продолжительность :02:08:30.087
Вид битрейта :Constant
Битрейт :192 Kbps
Канал(ы) :2 channels
Частота :48.0 KHz
Метод сжатия :Lossy
Размер потока :176 MiB (13%)



Тех. данные:
Качество:TVRip
Продолжительность:02:08:30 час

Формат: AVI
Видео кодек: DivX
Аудио кодек: MPA1L3
Видео: 680 x 540 (5:4), 25.000 fps, 1 322 Kbps, 0.144 bit/pixel
Аудио : 48.0 KHz, , 2 channels (), 192 Kbps



280bd478382a90b9bad54bb91e62d026db61f087Пустыня (Михаил Кац, драма, 1991) [TVRip, Не требуется] Пустыня (Михаил Кац, драма, 1991) [TVRip, Не требуется] " />

Аплоадер: Админ, дата: 4-01-2013, 19:44, торрент скачан: 359 раз

Понравилась раздача? Посмотрите эти:
  • Божья тварь (Галина Данелия-Юркова, комедия, 1991) [DVDRip, Не требуется]
  • Летят журавли (Михаил Калатозов, драма, мелодрама, военный, 1957) [DVDRip, ...
  • Человек идёт за солнцем (Михаил Калик, драма, 1961) [DVDRip, Не требуется]
  • Убийство на улице Данте (Михаил Ромм, драма, 1956) [DVDRip, Не требуется]
  • Путевка в Жизнь (Николай Экк, драма, 1931) [DVDRip, Не требуется]
  • Призрак (Никита Орлов, боевик, триллер, 1991) [TVRip, Не требуется]
  • Расстанемся - пока хорошие (Владимир Мотыль, мелодрама, приключения, 1991) ...
  • Сапоги (Владимир Немоляев, короткометражка, драма, комедия, 1957) [DVDRip, ...
  • Если есть паруса (Валентин Козачков, драма, 1969) [DVDRip, Не требуется]
  • Ой, вы, гуси... (Лидия Боброва, Драма, 1991) [DVDRip, Не требуется]
  • Ночные забавы (2 части из 2. Реставрирован) (Владимир Краснопольский, Валер ...
  • Игра на миллионы (Геннадий Байсак, комедия, криминал, приключения, 1991) [T ...
  • Мы с Вулканом (Валентин Перов, детский, семейный, 1973) [TVRip, Не требуетс ...
  • Челюскинцы (2 части из 2) (Михаил Ершов, приключения, 1984) [TVRip, Не треб ...
  • Царь Иван Грозный (2 части из 2) (Геннадий Васильев, Драма, история, 1991) ...
  • Всё дело в брате (Валентин Горлов, семейный, 1976) [TVRip, Не требуется]
  • Степь (2 части из 2) (Сергей Бондарчук, драма, история, 1977) [DVDRip, Не т ...
  • Солдатки (Валентин Козачков, драма, 1977) [DVDRip, Не требуется]
  • Оглашению не подлежит (Хасан Бакаев, драма, 1987) [TVRip, Не требуется]
  • Близнецы (Константин Юдин, комедия, 1945) [TVRip, Перевод, Не требуется]
  • Суворов (Михаил Доллер, Всеволод Пудовкин, драма, военный, биография, истор ...
  • Дикое поле (Николай Гусаров, боевик, 1991) [DVDRip, Не требуется]
  • Гарем Степана Гуслякова (Алишер Хамдамов, драма, 1989) [TVRip, Не требуетс ...
  • Ведьма (Александр Абрамов, короткометражка, драма, 1958) [TVRip, Не требует ...
  • Мичман Панин (Михаил Швейцер, приключения, военный, история, 1960) [DVDRip, ...
  • Информация
    Посетители, находящиеся в группе Гости, не могут оставлять комментарии к данной публикации.