вход на сайт

Имя пользователя :
Пароль :

Восстановление пароля Регистрация
Человек на Луне / Man on the Moon (Милош Форман, драма, комедия, биография, 1999) [BDRip - AVC, Профессиональный (Дублированный, Многоголосый) + Оригинал + SUB]
Рейтинг:
(голосов: 1)



[img]{THEME}/images/logopost.png[/img]



Человек на Луне / Man on the Moon
«Hello, my name is Andy and this is my poster.»

Год выпуска: 1999
Страна: США Германия Япония Великобритания
Производство: BBC Television Centre, Cinehaus, Jersey Films, Marubeni Corporation, Mutual Film Corporation, Shapiro/West Productions, Tele-München (TMG), Toho-Towa, Universal Pictures
Жанр: драма, комедия, биография

Режиссёр: Милош Форман | Milos Forman
В ролях: Джим Керри, Джерри Бекер, Грейсон Эрик Пендри, Бриттани Колонна, Лесли Лайлс, Бобби Бориелло, Джордж Шапиро, Дэнни ДеВито, Бадд Фридман, Том Дрисен

Перевод: 1 - Профессиональный (полное дублирование)
2 - Профессиональный (многоголосый, закадровый) | Мост-Видео
3 - Оригинал (Английский)
Субтитры: Русские (2 вида), Английские

Описание:
Энди Кауфман не был обычным комиком. Он был выдающимся, провоцирующим, дерзким, оригинальным — эти качества можно отнести и к пленительному и успешному биографическому фильму «Человек на луне».
Джим Кэрри становится звездой, выиграв Золотой Глобус за зловещую роль комика. Энди нарушал все правила: заставляя людей смеяться над тем, что не может быть смешным. Он запудрит Вам мозги, но доставит Вам истинное удовольствие.



Дата премьеры (мир): 20 декабря 1999
Дата премьеры (РФ): 1 июля 2002
Релиз на DVD: 24 ноября 2011, «CP-Digital»

Качество: BDRip - AVC | исх. Man on the Moon.BDRemux 1080p
Продолжительность: 01:58:00 час.

Формат: MKV
Видео кодек: H.264
Аудио кодек: АC3
Видео: 1108x472 (2.35:1), 24.000 fps, H.264 ~3 046 kbps avg, 0.236 bit/pixel
Аудио #1: 48 kHz, АC3, 3/2 (L,C,R,l,r) + LFE ch, ~384.00 kbps avg | Дублированный
Аудио #2: 48 kHz, АC3, 3/2 (L,C,R,l,r) + LFE ch, ~448.00 kbps avg | Многоголосый | Мост-Видео
Аудио #3: 48 kHz, АC3, 3/2 (L,C,R,l,r) + LFE ch, ~448.00 kbps avg | Оригинал (Английский)
MediaInfo ▼Format : Matroska
File size : 3.58 GiB
Duration : 1h 58mn
Overall bit rate : 4 329 Kbps
Movie name : Man on the Moon (1999) BDRip
Encoded date : UTC 2011-04-05 15:13:28
Writing application : mkvmerge v4.4.0 (Die Wiederkehr) built on Oct 31 2010 21:52:48
Writing library : libebml v1.0.0 + libmatroska v1.0.0
Cover : Yes
Video
ID : 1
Format : AVC
Format/Info : Advanced Video Codec
Format profile : [email protected]
Format settings, CABAC : Yes
Format settings, ReFrames : 13 frames
Codec ID : V_MPEG4/ISO/AVC
Duration : 1h 58mn
Bit rate : 3 046 Kbps
Width : 1 108 pixels
Height : 472 pixels
Display aspect ratio : 2.35:1
Frame rate : 24.000 fps
Color space : YUV
Chroma subsampling : 4:2:0
Bit depth : 8 bits
Scan type : Progressive
Bits/(Pixel*Frame) : 0.236
Stream size : 2.45 GiB (68%)
Writing library : x264 core 114 r1924 08d04a4
Encoding settings : cabac=1 / ref=13 / deblock=1:-3:-2 / analyse=0x3:0x133 / me=umh / subme=10 / psy=1 / psy_rd=1.05:0.07 / mixed_ref=1 / me_range=32 / chroma_me=1 / trellis=2 / 8x8dct=1 / cqm=0 / deadzone=21,11 / fast_pskip=1 / chroma_qp_offset=-3 / threads=6 / sliced_threads=0 / nr=0 / decimate=1 / interlaced=0 / constrained_intra=0 / bframes=12 / b_pyramid=2 / b_adapt=2 / b_bias=0 / direct=1 / weightb=1 / open_gop=0 / weightp=2 / keyint=250 / keyint_min=24 / scenecut=40 / intra_refresh=0 / rc=crf / mbtree=0 / crf=19.7 / qcomp=0.60 / qpmin=0 / qpmax=69 / qpstep=4 / ip_ratio=1.40 / pb_ratio=1.20 / aq=1:0.90
Language : English
Matrix coefficients : BT.709-5, BT.1361, IEC 61966-2-4 709, SMPTE RP177
Audio #1
ID : 2
Format : AC-3
Format/Info : Audio Coding 3
Mode extension : CM (complete main)
Codec ID : A_AC3
Duration : 1h 58mn
Bit rate mode : Constant
Bit rate : 384 Kbps
Channel(s) : 6 channels
Channel positions : Front: L C R, Side: L R, LFE
Sampling rate : 48.0 KHz
Bit depth : 16 bits
Stream size : 325 MiB (9%)
Title : Dub
1a45a9a42352b3ec02c44c6613b06336b228e06eЧеловек на Луне / Man on the Moon (Милош Форман, драма, комедия, биография, 1999) [BDRip - AVC, Профессиональный (Дублированный, Многоголосый) + Оригинал + SUB] Человек на Луне / Man on the Moon (Милош Форман, драма, комедия, биография, 1999) [BDRip - AVC, Профессиональный (Дублированный, Многоголосый) + Оригинал + SUB] " />

Аплоадер: Админ, дата: 24-07-2012, 19:59, торрент скачан: 359 раз

Понравилась раздача? Посмотрите эти:
  • 42 / 42 (Брайан Хелгеленд, Драма, биография, спорт, 2013) [BDRip 720p, Проф ...
  • Снова ты / You Again (Энди Фикмен, Мелодрама, комедия, 2010) [BDRip-AVC, Пр ...
  • Железная леди / The Iron Lady (Филлида Ллойд, драма, биография, история, 20 ...
  • Смерть на похоронах / Death at a Funeral (Нил ЛаБут, комедия, 2010) [BDRip ...
  • Запретная любовь / The Edge of Love (Джон Мэйбери, Драма, мелодрама, военны ...
  • Человек на Луне / Man On The Moon (Милош Форман, Джим Керри, драма, биограф ...
  • Цельнометаллическая оболочка / Full Metal Jacket (Стэнли Кубрик, драма, вое ...
  • Аноним / Anonymous (Роланд Эммерих, триллер, драма, 2011) [BDRip-AVC, Профе ...
  • Мать / Madeo (Джун-хо Бон, триллер, драма, криминал, детектив, 2009) [BDRip ...
  • Мартовские иды / The Ides of March (Джордж Клуни / George Clooney, драма, 2 ...
  • Персонаж / Stranger Than Fiction (Марк Форстер, Комедия, драма, фантастика, ...
  • Человек-волк [Театральная версия] / The Wolfman [Theatrical cut] (Джо Джонс ...
  • Меланхолия / Melancholia (Ларс фон Триер / Lars von Trier, фантастика, драм ...
  • Трон / Tron (Стивен Лисбергер / Steven Lisberger, фантастика, боевик, прикл ...
  • Человек, который изменил всё / Moneyball (Беннетт Миллер, драма, биография, ...
  • Чужие на районе / Attack the Block (Джо Корниш, фантастика, боевик, комедия ...
  • Возлюбленные / Les bien-aimés (Кристоф Оноре, Драма, 2011) [BDRip 720p, Дуб ...
  • Человек на Луне / Man on the Moon (Милош Форман, драма, комедия, биография, ...
  • Человек на Луне / Man On The Moon (Милош Форман, биография, 1999) [HDRip, П ...
  • Человек на Луне / Man on the Moon (Милош Форман, драма, комедия, биография, ...
  • Информация
    Посетители, находящиеся в группе Гости, не могут оставлять комментарии к данной публикации.