вход на сайт

Имя пользователя :
Пароль :

Восстановление пароля Регистрация
Меланхолия / Melancholia (Ларс фон Триер / Lars von Trier, фантастика, драма, 2011) [BDRip - AVC, Профессиональный (многоголосый, закадровый) + Оригинал + SUB]
Рейтинг:
(голосов: 1)



[img]{THEME}/images/logopost.png[/img]



Меланхолия / Melancholia
«Enjoy it while it lasts»

Год выпуска: 2011
Страна: Германия , Дания , Швеция , Франция
Производство: arte France Cinéma, Canal+ [fr], Centre National du Cinéma et de Limage Animée (CNC), Ciné Cinémas, Danish Filminstitute, Danmarks Radio (DR), Edition Video, Eurimages, Film i Väst, Filmstiftung Nordrhein-Westfalen, Liberator Productions, Memfis Film, Nordisk Film Distribution, Nordisk Film- & TV-Fond, Slot Machine, Sveriges Television (SVT), Swedish Film Institute, Zentropa Entertainments, Zentropa International Köln, Zentropa International Sweden
Жанр: фантастика, драма

Режиссёр: Ларс фон Триер / Lars von Trier
В ролях: Кирстен Данст, Шарлотта Генсбур, Александр Скарсгард, Брэйди Корбет, Камерон Спурр, Шарлотта Рэмплинг, Еспер Кристенсен, Джон Хёрт, Стеллан Скарсгард, Удо Кир

Перевод: 1: Профессиональный (многоголосый, закадровый) (MVO)
2: Оригинал
Субтитры: Русские, Английские

Описание: Свадебная вечеринка оборачивается катастрофой вселенского масштаба: обнаруживается, что на Землю надвигается планета под названием Меланхолия. С каждым часом она все ближе, и шансов на выживание у человечества все меньше…Дата премьеры (мир): 18 мая 2011
Дата премьеры (РФ): 7 июля 2011, «Централ Партнершип»
Релиз на DVD: 10 ноября 2011, «Новый Диск»
Релиз на Blu-Ray: 26 января 2012, «Новый Диск»
Качество: BDRip - AVC
Продолжительность: 02:09:59

Формат: MKV
Видео кодек: x264
Аудио кодек: AC3
Видео: 1128 x 480 (2.35:1), 23.976 fps, AVC, ~2 345 kbps avg, 0.169 bit/pixel
Аудио #1: [Russian] 48 kHz, AC3, 6 channels (Front: L C R, Side: L R, LFE), ~448.00 kbps avg | MVO
Аудио #2: [English] 48 kHz, AC3, 6 channels (Front: L C R, Side: L R, LFE), ~448.00 kbps avg | Оригинал
MediaInfo ▼TextFormat : Matroska
File size : 2.94 GiB
Duration : 2h 9mn
Overall bit rate : 3 243 Kbps
Movie name : Melancholia (2011) BDRip
Encoded date : UTC 2011-11-28 09:38:26
Writing application : mkvmerge v5.0.1 (Es ist Sommer) built on Oct 9 2011 11:55:43
Writing library : libebml v1.2.2 + libmatroska v1.3.0
Cover : Yes
Video
ID : 1
Format : AVC
Format/Info : Advanced Video Codec
Format profile : [email protected]
Format settings, CABAC : Yes
Format settings, ReFrames : 13 frames
Codec ID : V_MPEG4/ISO/AVC
Duration : 2h 9mn
Bit rate : 2 345 Kbps
Width : 1 128 pixels
Height : 480 pixels
Display aspect ratio : 2.35:1
Frame rate : 25.000 fps
Color space : YUV
Chroma subsampling : 4:2:0
Bit depth : 8 bits
Scan type : Progressive
Bits/(Pixel*Frame) : 0.169
Stream size : 2.07 GiB (70%)
Writing library : x264 core 119 r2106kMod 07efeb4
Encoding settings : cabac=1 / ref=13 / deblock=1:-2:-2 / analyse=0x3:0x133 / me=umh / subme=11 / psy=1 / fade_compensate=0.00 / psy_rd=1.00:0.03 / mixed_ref=1 / me_range=32 / chroma_me=1 / trellis=2 / 8x8dct=1 / cqm=0 / deadzone=21,11 / fast_pskip=1 / chroma_qp_offset=-3 / threads=6 / sliced_threads=0 / nr=0 / decimate=1 / interlaced=0 / bluray_compat=0 / constrained_intra=0 / bframes=12 / b_pyramid=2 / b_adapt=2 / b_bias=0 / direct=1 / weightb=1 / open_gop=0 / weightp=2 / keyint=250 / keyint_min=25 / scenecut=40 / intra_refresh=0 / rc=crf / mbtree=0 / crf=18.3000 / qcomp=0.60 / qpmin=0 / qpmax=69 / qpstep=4 / ip_ratio=1.40 / pb_ratio=1.20 / aq=3:0.90
Language : English
Matrix coefficients : BT.709-5, BT.1361, IEC 61966-2-4 709, SMPTE RP177
Audio #1
ID : 2
Format : AC-3
Format/Info : Audio Coding 3
Mode extension : CM (complete main)
Codec ID : A_AC3
Duration : 2h 9mn
Bit rate mode : Constant
Bit rate : 448 Kbps
Channel(s) : 6 channels
Channel positions : Front: L C R, Side: L R, LFE
Sampling rate : 48.0 KHz
Bit depth : 16 bits
Compression mode : Lossy
Stream size : 416 MiB (14%)
Title : MVO
Language : Russian
Audio #2
ID : 3
Format : AC-3
Format/Info : Audio Coding 3
d10fbf41e4fe4267b3930de8731d81796d70d828Меланхолия / Melancholia (Ларс фон Триер / Lars von Trier, фантастика, драма, 2011) [BDRip - AVC, Профессиональный (многоголосый, закадровый) + Оригинал + SUB] Меланхолия / Melancholia (Ларс фон Триер / Lars von Trier, фантастика, драма, 2011) [BDRip - AVC, Профессиональный (многоголосый, закадровый) + Оригинал + SUB] " />

Аплоадер: Админ, дата: 28-06-2012, 23:33, торрент скачан: 359 раз

Понравилась раздача? Посмотрите эти:
  • Джекпот / Arme Riddere (Магнус Мартенс, Боевик, комедия, криминал, 2011) [B ...
  • Убить по расписанию / Ticking Clock (Эрни Барбараш, фантастика, боевик, три ...
  • Шелуха / Husk (Бретт Симмонс, ужасы, триллер, 2011) [BDRip 720p, Профессион ...
  • Цельнометаллическая оболочка / Full Metal Jacket (Стэнли Кубрик, драма, вое ...
  • Аноним / Anonymous (Роланд Эммерих, триллер, драма, 2011) [BDRip-AVC, Профе ...
  • Мартовские иды / The Ides of March (Джордж Клуни / George Clooney, драма, 2 ...
  • Персонаж / Stranger Than Fiction (Марк Форстер, Комедия, драма, фантастика, ...
  • Поворот не туда 4 / Wrong Turn 4 (Деклан О’Брайэн, ужасы, боевик, детектив, ...
  • Автостопом по галактике / The Hitchhikers Guide to the Galaxy (Гарт Дженнин ...
  • Трон / Tron (Стивен Лисбергер / Steven Lisberger, фантастика, боевик, прикл ...
  • Апокалипсис сегодня / Apocalypse Now (Френсис Форд Коппола / Francis Ford C ...
  • Меланхолия / Melancholia (Ларс фон Триер, фантастика, драма, 2011) [HDRip-A ...
  • Ронал-варвар / Ronal barbaren (Крестен Вестбьерг Андерсен, мультфильм, фэнт ...
  • Меланхолия / Melancholia (Ларс фон Триер, фантастика, драма, 2011) [Blu-Ray ...
  • Чужие на районе / Attack the Block (Джо Корниш, фантастика, боевик, комедия ...
  • Похищенная / A Lonely Place to Die (Джулиан Джилби, триллер, криминал, прик ...
  • Судный день / The Day (Дуглас Арниокоски, Фантастика, триллер, драма, 2011) ...
  • Бункер / La cara oculta (Андрес Баиз, триллер, 2011) [BDRip 720p, Профессио ...
  • Бункер / La cara oculta (Андрес Баиз, триллер, 2011) [BDRip 1080p, Професси ...
  • Меланхолия / Melancholia (Ларс фон Триер, фантастика, драма, 2011)[DVDRip, ...
  • Меланхолия / Melancholia (Ларс фон Триер, фантастика, драма, 2011)[DVDRip, ...
  • Меланхолия / Melancholia (Ларс фон Триер, фантастика, драма, 2011)[DVDRip, ...
  • Антихрист / Antichrist (Ларс фон Триер, триллер, драма, 2009) [HDRip, Профе ...
  • Меланхолия / Melancholia (Ларс фон Триер, фантастика, драма, 2011)[HDRip, П ...
  • Меланхолия / Melancholia (Ларс фон Триер, фантастика, драма, 2011) [HDRip, ...
  • Информация
    Посетители, находящиеся в группе Гости, не могут оставлять комментарии к данной публикации.