вход на сайт

Имя пользователя :
Пароль :

Восстановление пароля Регистрация
Цельнометаллическая оболочка / Full Metal Jacket (Стэнли Кубрик, драма, военный, 1987) [BDRip-AVC, Авторский (одноголосый , Гоблин) + профессиональный (многоголосый , R5) + оригинал]
Рейтинг:
(голосов: 1)



[img]{THEME}/images/logopost.png[/img]



Цельнометаллическая оболочка / Full Metal Jacket

«Born to Kill»

Год выпуска: 1987
Страна: США Великобритания
Производство: Warner Bros. Pictures
Жанр: драма, военный

Режиссёр: Стэнли Кубрик
В ролях: Мэтью Модайн, Адам Болдуин, Винсент Д`Онофрио, Р. Ли Эрми, Дориан Хэрвуд, Кевин Мейджор Ховард, Арлисс Ховард, Эд О`Росс, Джон Терри, Кирон Джеккинис


Перевод: авторский (одноголосый закадровый, Гоблин) + профессиональный (многоголосый закадровый, R5) + оригинал
Субтитры:русские (Гоблин), русские (R5), английские

Описание
Американская база подготовки новобранцев корпуса морской пехоты. Жесточайшая, бесчеловечная система призвана превратить домашних мальчишек в натренированных хладнокровных убийц. Их готовят к войне во Вьетнаме, где им придется часто задавать себе вопрос «Разве война — это не ад?», а иначе просто невозможно убивать каждый день, не понимая, для чего это?


TOP 250: 81TOP 250: 244

Доп. информация

"MediaInfo" ▼TextFormat : Matroska
File size : 4.37 GiB
Duration : 1h 56mn
Overall bit rate : 5 375 Kbps
Movie name : Full Metal Jacket (1987) BDRip
Encoded date : UTC 2011-04-23 18:49:23
Writing application : mkvmerge v4.4.0 (Die Wiederkehr) built on Oct 31 2010 21:52:48
Writing library : libebml v1.0.0 + libmatroska v1.0.0
Cover : Yes
Video
ID : 1
Format : AVC
Format/Info : Advanced Video Codec
Format profile : [email protected]
Format settings, CABAC : Yes
Format settings, ReFrames : 10 frames
Codec ID : V_MPEG4/ISO/AVC
Duration : 1h 56mn
Bit rate : 3 924 Kbps
Width : 1 152 pixels
Height : 648 pixels
Display aspect ratio : 16:9
Frame rate : 23.976 fps
Color space : YUV
Chroma subsampling : 4:2:0
Bit depth : 8 bits
Scan type : Progressive
Bits/(Pixel*Frame) : 0.219
Stream size : 3.19 GiB (73%)
Writing library : x264 core 115 r1937 aa21558
Encoding settings : cabac=1 / ref=10 / deblock=1:-3:-2 / analyse=0x3:0x133 / me=umh / subme=10 / psy=1 / psy_rd=1.15:0.05 / mixed_ref=1 / me_range=32 / chroma_me=1 / trellis=2 / 8x8dct=1 / cqm=0 / deadzone=21,11 / fast_pskip=1 / chroma_qp_offset=-3 / threads=6 / sliced_threads=0 / nr=0 / decimate=1 / interlaced=0 / bluray_compat=0 / constrained_intra=0 / bframes=10 / b_pyramid=2 / b_adapt=2 / b_bias=0 / direct=1 / weightb=1 / open_gop=0 / weightp=2 / keyint=250 / keyint_min=23 / scenecut=40 / intra_refresh=0 / rc=crf / mbtree=0 / crf=19.9 / qcomp=0.70 / qpmin=0 / qpmax=69 / qpstep=4 / ip_ratio=1.40 / pb_ratio=1.20 / aq=2:0.90
Language : English
Matrix coefficients : BT.709-5, BT.1361, IEC 61966-2-4 709, SMPTE RP177
Audio #1
ID : 2
Format : AC-3
Format/Info : Audio Coding 3
Mode extension : CM (complete main)
Codec ID : A_AC3
Duration : 1h 56mn
Bit rate mode : Constant
Bit rate : 448 Kbps
Channel(s) : 6 channels
Channel positions : Front: L C R, Side: L R, LFE
Sampling rate : 48.0 KHz
Bit depth : 16 bits
Compression mode : Lossy
Stream size : 373 MiB (8%)
Title : AVO (Goblin)
Language : Russian
Audio #2
ID : 3
Format : AC-3
Format/Info : Audio Coding 3
Mode extension : CM (complete main)
Codec ID : A_AC3
Duration : 1h 56mn
Bit rate mode : Constant
Bit rate : 448 Kbps
Channel(s) : 6 channels
Channel positions : Front: L C R, Side: L R, LFE
Sampling rate : 48.0 KHz
Bit depth : 16 bits
Compression mode : Lossy
Stream size : 373 MiB (8%)
Title : MVO (R5)
Language : Russian
Audio #3
ID : 4
Format : AC-3
Format/Info : Audio Coding 3
Mode extension : CM (complete main)
Codec ID : A_AC3
Duration : 1h 56mn
Bit rate mode : Constant
Bit rate : 448 Kbps
Channel(s) : 6 channels
Channel positions : Front: L C R, Side: L R, LFE
Sampling rate : 48.0 KHz
Bit depth : 16 bits
Compression mode : Lossy
Stream size : 373 MiB (8%)
Title : Original
Language : English
Text #1
ID : 5
Format : UTF-8
Codec ID : S_TEXT/UTF8
Codec ID/Info : UTF-8 Plain Text
Title : Goblin
Language : Russian
Text #2
ID : 6
Format : UTF-8
Codec ID : S_TEXT/UTF8
Codec ID/Info : UTF-8 Plain Text
Title : R5
Language : Russian
Text #3
ID : 7
Format : UTF-8
Codec ID :
ac42a109f8e4fb4794eb3bf46caefecd8928dafcЦельнометаллическая оболочка / Full Metal Jacket (Стэнли Кубрик, драма, военный, 1987) [BDRip-AVC, Авторский (одноголосый , Гоблин) + профессиональный (многоголосый , R5) + оригинал] Цельнометаллическая оболочка / Full Metal Jacket (Стэнли Кубрик, драма, военный, 1987) [BDRip-AVC, Авторский (одноголосый , Гоблин) + профессиональный (многоголосый , R5) + оригинал] " />

Аплоадер: Админ, дата: 28-11-2011, 00:40, торрент скачан: 359 раз

Понравилась раздача? Посмотрите эти:
  • Запретная любовь / The Edge of Love (Джон Мэйбери, Драма, мелодрама, военны ...
  • Водитель / The Driver (Уолтер Хилл, Боевик, триллер, драма, криминал, 1978) ...
  • Зубная фея 2 / Tooth Fairy 2 (Алекс Замм, комедия, семейный, 2012) [BDRip 7 ...
  • Убить по расписанию / Ticking Clock (Эрни Барбараш, фантастика, боевик, три ...
  • Цельнометаллическая оболочка / Full Metal Jacket ( Стэнли Кубрик )[1980., Б ...
  • Цельнометаллическая оболочка / Full Metal Jacket ( Стэнли Кубрик )[1980 , Б ...
  • Мартовские иды / The Ides of March (Джордж Клуни / George Clooney, драма, 2 ...
  • Персонаж / Stranger Than Fiction (Марк Форстер, Комедия, драма, фантастика, ...
  • Вальгалла: Сага о викинге / Valhalla Rising (Николас Виндинг Рёфн, боевик, ...
  • Фантомы / Shutter (Масаюки Очиай, ужасы, триллер, детектив, 2008) [BDRip-AV ...
  • Апокалипсис сегодня / Apocalypse Now (Френсис Форд Коппола / Francis Ford C ...
  • Цельнометаллическая Оболочка / Full Metal Jacket (Стэнли Кубрик, драма, вое ...
  • Идеальный Голос / Pitch Perfect (Джейсон Мур, Комедия, музыка, 2012) [BDRip ...
  • Цельнометаллическая оболочка / Full Metal Jacket REMASTERED (Стэнли Кубрик, ...
  • Бобер / The Beaver (Джоди Фостер, драма, 2011) [BDRip 720p, Дубляж + Оригин ...
  • Мальчишник 2: Из Вегаса в Бангкок / The Hangover Part II (Тодд Филлипс, ком ...
  • Цельнометаллическая оболочка / Full Metal Jacket (Стэнли Кубрик, драма, вое ...
  • Чаббчаббы спасают Рождество / The Chubbchubbs Save Xmas (Коуди Камерон, мул ...
  • Далеко-далеко / Far and Away (Рон Ховард, драма, мелодрама, приключения, ве ...
  • Похищенная / A Lonely Place to Die (Джулиан Джилби, триллер, криминал, прик ...
  • Китайский квартал / Chinatown (Роман Полански, Триллер, драма, криминал, де ...
  • Викинги / Outlander (Ховард МакКейн, Фантастика, боевик, приключения, 2008) ...
  • Цельнометаллическая оболочка / Full Metal Jacket (Стэнли Кубрик, боевик, др ...
  • Цельнометаллическая Оболочка / Full Metal Jacket (Стэнли Кубрик, Драма, 198 ...
  • Цельнометаллическая Оболочка / Full Metal Jacket (Стэнли Кубрик, боевик, др ...
  • Информация
    Посетители, находящиеся в группе Гости, не могут оставлять комментарии к данной публикации.