вход на сайт

Имя пользователя :
Пароль :

Восстановление пароля Регистрация
Кофе и сигареты / Coffee and Cigarettes (Джим Джармуш, драма, комедия, 2003) [DVDRip-AVC, Профессиональный (многоголосый, закадровый)]
Рейтинг:
(голосов: 1)



[img]{THEME}/images/logopost.png[/img]



Кофе и сигареты / Coffee and Cigarettes

Год выпуска: 2003
Страна: США, Япония, Италия
Производство: Asmik Ace Entertainment, BIM, Smokescreen Inc.
Жанр: драма, комедия, музыка

Режиссёр: Джим Джармуш / Jim Jarmusch
В ролях: Игги Поп (Iggy), Том Уэйтс (Tom), Роберто Бениньи (Roberto), Стив Бушеми (Waiter), Кейт Бланшетт (Cate / Shelly), Альфред Молина (Alfred), Стив Кугэн (Steve), Билл Мюррэй (Bill Murray), Стивен Райт (Steven), Жуа Ли (Good Twin), Чинке Ли (Evil Twin / Kitchen Guy), Джозеф Ригано (Joe)

Перевод: Профессиональный (многоголосый, закадровый), Оригинал (английский)

Субтитры:Русский, английский

Описание: Одиннадцать новелл с участием гениальных актеров, шоуменов и музыкантов. Попивая кофе и покуривая сигареты, герои фильма спорят до безумия, подшучивают друг над другом, делают глубокомысленные выводы и травят нелепейшие байки…

IMDB: 6.80 (20 742)
КиноПоиск: 7.714 (7 796)


"Доп. информация: " ▼
Джим Джармуш работал над фильмом «Кофе и сигареты» в течение семнадцати лет с 1986 по 2003 год.

Игги Поп и Том Уэйтс, которые незадолго до съёмок фильма действительно бросили курить, после съёмок опять пристрастились к сигаретам. Узнав об этом, Джим Джармуш предупреждал других актёров, что если они не курят, то он перепишет их роли так, чтобы им не нужно было появляться в кадре с сигаретой.

Столики в фильме (кроме сюжетов Twins, Cousins) имеют покрытие или скатерть в виде чередования темных и светлых квадратов, как на шахматной доске.

Качество: DVDRip-AVC.
Продолжительность: 01:32:21

Формат: MKV
Видео кодек:H.264
Аудио кодек:AС3
Видео: AVC [email protected]; 720x400 (16:9); 1109 Kbps; 25 fps; 0.154 bpp
Аудио: Русский, профессиональный (многоголосый); AC3; 448 Kbps; CBR; 6 ch
Аудио 2: Английский, оригинал; AC3; 448 Kbps; CBR; 6 ch

"MediaInfo" ▼Format : Matroska
File size : 1.32 GiB
Duration : 1h 32mn
Overall bit rate : 2 046 Kbps
Movie name : Кофе и сигареты / Coffee and Cigarettes (2003)
Encoded date : UTC 2011-03-08 22:39:26
Writing application : mkvmerge v4.5.0 (Speed of Light) built on Feb 1 2011 02:10:32
Writing library : libebml v1.2.0 + libmatroska v1.1.0

Video
ID : 1
Format : AVC
Format/Info : Advanced Video Codec
Format profile : [email protected]
Format settings, CABAC : Yes
Format settings, ReFrames : 16 frames
Muxing mode : Header stripping
Codec ID : V_MPEG4/ISO/AVC
Duration : 1h 32mn
Bit rate : 1 150 Kbps
Width : 720 pixels
Height : 400 pixels
Display aspect ratio : 16:9
Frame rate : 25.000 fps
Color space : YUV
Chroma subsampling : 4:2:0
Bit depth : 8 bits
Scan type : Progressive
Bits/(Pixel*Frame) : 0.160
Stream size : 733 MiB (54%)
Writing library : x264 core 112 r1867 22bfd31
Encoding settings : cabac=1 / ref=16 / deblock=1:0:0 / analyse=0x3:0x133 / me=umh / subme=10 / psy=1 / psy_rd=1.00:0.00 / mixed_ref=1 / me_range=32 / chroma_me=1 / trellis=2 / 8x8dct=1 / cqm=0 / deadzone=21,11 / fast_pskip=0 / chroma_qp_offset=-2 / threads=3 / sliced_threads=0 / nr=0 / decimate=0 / interlaced=0 / constrained_intra=0 / bframes=8 / b_pyramid=2 / b_adapt=2 / b_bias=0 / direct=3 / weightb=1 / open_gop=0 / weightp=2 / keyint=250 / keyint_min=25 / scenecut=40 / intra_refresh=0 / rc_lookahead=60 / rc=2pass / mbtree=1 / bitrate=1150 / ratetol=1.0 / qcomp=0.60 / qpmin=0 / qpmax=51 / qpstep=4 / cplxblur=20.0 / qblur=0.5 / ip_ratio=1.40 / aq=1:1.00
Language : English

Audio #1
ID : 2
Format : AC-3
Format/Info : Audio Coding 3
Mode extension : CM (complete main)
Muxing mode : Header stripping
Codec ID : A_AC3
Duration : 1h 32mn
Bit rate mode : Constant
Bit rate : 448 Kbps
Channel(s) : 6 channels
Channel positions : Front: L C R, Side: L R, LFE
Sampling rate : 48.0 KHz
Bit depth : 16 bits
Compression mode : Lossy
Stream size : 296 MiB (22%)
Language : Russian

Audio #2
ID : 3
Format : AC-3
Format/Info : Audio Coding 3
Mode extension : CM (complete main)
Mu
bed924827c008e101ee908d3a171d22f0a4fa2eeКофе и сигареты / Coffee and Cigarettes (Джим Джармуш, драма, комедия, 2003) [DVDRip-AVC, Профессиональный (многоголосый, закадровый)] Кофе и сигареты / Coffee and Cigarettes (Джим Джармуш, драма, комедия, 2003) [DVDRip-AVC, Профессиональный (многоголосый, закадровый)] " />

Аплоадер: Админ, дата: 9-03-2011, 18:43, торрент скачан: 359 раз

Понравилась раздача? Посмотрите эти:
  • За кадром... / In a World...(Лэйк Белл, комедия, 2013) [BDRip-AVC, Професси ...
  • Грязь / Filth (Джон С. Бейрд, криминал, драма, комедия, 2013) [BDRip-AVC, ...
  • Верное дельце / Une pure affaire (Александр Коффре, Боевик, Комедия, Кримин ...
  • Смерть на похоронах / Death at a Funeral (Нил ЛаБут, комедия, 2010) [BDRip ...
  • Муравьи в штанах / Harte Jungs (Марк Ротемунд, Комедия, 2000) [DVDRip-AVC, ...
  • Убить по расписанию / Ticking Clock (Эрни Барбараш, фантастика, боевик, три ...
  • Кофе и сигареты / Coffee and Cigarettes ( Джим Джармуш )[2003., Драма, DVDR ...
  • Мэверик / Maverick (Ричард Доннер, боевик, триллер, комедия, приключения, в ...
  • Властелин измерений / Grande ourse - La cle des possibles (Патрис Сов, фант ...
  • Персонаж / Stranger Than Fiction (Марк Форстер, Комедия, драма, фантастика, ...
  • Водный мир / Waterworld (Кевин Рейнольдс, Кевин Костнер, фантастика, боевик ...
  • Братья / Brothers (Джим Шеридан, Триллер, драма, военный, 2009) [BDRip-AVC, ...
  • Мертвец / Dead Man (Джим Джармуш, фэнтези, драма, вестерн, 1995) [BDRip-AVC ...
  • Поворот не туда 4 / Wrong Turn 4 (Деклан О’Брайэн, ужасы, боевик, детектив, ...
  • Геркулес / Hercules (Рон Клементс, Джон Маскер, Мультфильм, 1997 г.)[HDTVRi ...
  • Далеко-далеко / Far and Away (Рон Ховард, драма, мелодрама, приключения, ве ...
  • Рыжий пес / Red Dog (Крив Стендерс, драма, комедия, семейный, 2011) [BDRip ...
  • Chelsea - Season Review 2011-12 / Челси - Обзор Сезона 2011-12 [ Футбол, 20 ...
  • Mylene Farmer / Du Temps [2011, Pop, HDTVRip]
  • Mylene Farmer / Bleu Noir [2011, Pop, HDTVRip]
  • Дело - труба / Brassed Off (Марк Херман, драма, мелодрама, комедия, 1996) [ ...
  • СчастливоСпасибоЕщеПожалуйста / HappyThankYouMorePlease (Джош Рэднор / Josh ...
  • Нет мужчин - нет проблем / Without Men (Габриела Тальявини / Gabriela Tagli ...
  • Футбольные гладиаторы / Ушедшее время / Awaydays (Пэт Холден, драма, кримин ...
  • Кофе и сигареты / Coffee and Cigarettes (Джим Джармуш, драма, комедия, музы ...
  • Информация
    Посетители, находящиеся в группе Гости, не могут оставлять комментарии к данной публикации.