вход на сайт

Имя пользователя :
Пароль :

Восстановление пароля Регистрация
Брат якудзы / Brother (Такеши Китано, триллер, драма, криминал, 2000) [HDRip-AVC, Профессиональный (двухголосый, закадровый)]
Рейтинг:
(голосов: 1)



[img]{THEME}/images/logopost.png[/img]



Брат якудзы / Brother

Год выпуска: 2000
Страна: США, Япония, Великобритания
Производство: Office Kitano
Жанр: триллер, драма, криминал

Режиссёр: Такеши Китано
В ролях: Такеши Китано, Омар Эппс, Куроудо Маки, Масая Като, Ройял Уоткинс, Ломбардо Бойяр, Сусуму Тэрадзима, Рен Осуги, Рё Исибаси, Татьяна Али, Джеймс Шигета, Тетсуя Ватари

Перевод: Профессиональный (двухголосый, закадровый)
Субтитры: нет

Описание: После разгрома родного мафиозного клана боевик Аники Ямамото по прозвищу Старший Брат бежит из Японии в Америку. Здесь его встречает чужой, но не менее жестокий мир безжалостной борьбы за власть в преступной среде, в которой Ямамото решительно отвоевывает себе место, следуя древнему кодексу «якудзы».

Полагаясь только на свои силы и дорожа верными друзьями, он в одиночку ведет войну с врагами, зная, что в самом конце кровавого пути его ждет триумф или смерть.



Автор рипа: AVP Studio

Качество: HDRip-AVC | Сэмпл
Продолжительность: 01:53:20 час.

Формат: AVI
Видео кодек: H264
Аудио кодек: AC3
Видео: 864х464 (1,862:1), 24 fps, H264 ~ 1390 kbps avg, 0.144 bit/pixel
Аудио: 48 kHz, AC3, 6 ch, 448.00 kbps
"MediaInfo" ▼Общее
Полное имя : Brat.jakudzy.2000.HDRip-AVC.1,46.mkv
Формат : Matroska
Версия формата : Version 2
Размер файла : 1,46 Гбайт
Продолжительность : 1 ч. 53 м.
Общий поток : 1839 Кбит/сек
Название фильма : Brat.jakudzy.2000.HDRip-AVC.1,46_[Youtracker]_by_AVP Studio
Дата кодирования : UTC 2013-01-03 15:34:18
Программа кодирования : mkvmerge v5.8.0 (No Sleep / Pillow) built on Sep 2 2012 15:37:04
Библиотека кодирования : libebml v1.2.3 + libmatroska v1.3.0
Видео
Идентификатор : 1
Формат : AVC
Формат/Информация : Advanced Video Codec
Профиль формата : [email protected]
Параметр CABAC формата : Да
Параметр ReFrames формата : 11 кадров
Идентификатор кодека : V_MPEG4/ISO/AVC
Продолжительность : 1 ч. 53 м.
Битрейт : 1390 Кбит/сек
Ширина : 864 пикселя
Высота : 464 пикселя
Соотношение сторон : 1,862
Частота кадров : 24,000 кадра/сек
Цветовое пространство : YUV
Субдискретизация насыщенности : 4:2:0
Битовая глубина : 8 бит
Тип развёртки : Прогрессивная
Бит/(Пиксели*Кадры) : 0.144
Размер потока : 1,07 Гбайт (74%)
Заголовок : Источник BDRip 720p
Библиотека кодирования : x264 core 119 r2106 07efeb4
Настройки программы : cabac=1 / ref=11 / deblock=1:-2:-1 / analyse=0x3:0x113 / me=umh / subme=9 / psy=1 / psy_rd=1.00:0.10 / mixed_ref=1 / me_range=32 / chroma_me=1 / trellis=1 / 8x8dct=1 / cqm=0 / deadzone=21,11 / fast_pskip=0 / chroma_qp_offset=-3 / threads=3 / sliced_threads=0 / nr=0 / decimate=1 / interlaced=0 / bluray_compat=0 / constrained_intra=0 / bframes=10 / b_pyramid=2 / b_adapt=1 / b_bias=0 / direct=3 / weightb=1 / open_gop=0 / weightp=2 / keyint=240 / keyint_min=23 / scenecut=40 / intra_refresh=0 / rc_lookahead=60 / rc=2pass / mbtree=1 / bitrate=1390 / ratetol=1.0 / qcomp=0.60 / qpmin=0 / qpmax=69 / qpstep=4 / cplxblur=20.0 / qblur=0.5 / ip_ratio=1.40 / aq=1:1.00
Язык : English
Default : Да
Forced : Нет
Аудио
Идентификатор : 2
Формат : AC-3
Формат/Информация : Audio Coding 3
Расширение режима : CM (complete main)
Идентификатор кодека : A_AC3
Продолжительность : 1 ч. 53 м.
Вид битрейта : Постоянный
Битрейт : 448 Кбит/сек
Каналы : 6 каналов
Расположение каналов : Front: L C R, Side: L R, LFE
Частота : 48,0 КГц
Битовая глубина : 16 бит
Метод сжатия : С потерями
Размер потока : 363 Мбайт (24%)
Заголовок : Источник BDRip 720p
Язык : Russian
Default : Да
Forced : Нет
Текст
Идентификатор : 3
Формат : UTF-8
Идентификатор кодека : S_TEXT/UTF8
Идентификатор кодека/Информация : UTF-8 Plain Text
Заголовок : Источник BDRip 720p
Язык : Russian
Default : Нет
Forced : Нет
Меню
00:00:00.000 : :00:00:00.000
00:04:46.000 : :00:04:46.000
00:09:48.542 : :00:09:48.542
00:15:12.875 : :00:15:12.875
00:20:55.625 : :00:20:55.625
00:27:58.042 : :00:27:58.042
00:34:25.583 : :00:34:25.583
00:43:21.917 : :00:43:21.917
00:51:26.125 : :00:51:26.125
00:58:47.292 : :00:58:47.292
01:07:25.000 : :01:07:25.000
9fc70076faf9c04397f1a5c6d9f0ca93875ccc0cБрат якудзы / Brother (Такеши Китано, триллер, драма, криминал, 2000) [HDRip-AVC, Профессиональный (двухголосый, закадровый)] Брат якудзы / Brother (Такеши Китано, триллер, драма, криминал, 2000) [HDRip-AVC, Профессиональный (двухголосый, закадровый)] " />

Аплоадер: Админ, дата: 31-01-2013, 16:04, торрент скачан: 359 раз

Понравилась раздача? Посмотрите эти:
  • Фрилансеры / Freelancers (Джесси Терреро, боевик, драма, криминал, детектив ...
  • Двойной агент / The Double (Майкл Брандт, боевик, триллер, драма, криминал, ...
  • 11.6 / 11.6 (Филипп Годо, Драма, триллер, криминал, 2013) [BDRip-AVC, Профе ...
  • Брат якудзы / Brother (Такеши Китано, Триллер, драма, криминал, 2000) [BDRi ...
  • Полный беспредел / Autoreiji: Biyondo (Такеши Китано, Боевик, криминал, три ...
  • Полный беспредел / Autoreiji: Biyondo (Такеши Китано, боевик, криминал, три ...
  • Кодовое имя «Джеронимо» / Seal Team Six: The Raid on Osama Bin Laden (Джон ...
  • Брат якудзы / Brother (Такеши Китано, Триллер, драма, криминал, 2000) [HDRi ...
  • Брат якудзы / Brother (Такеши Китано, триллер, драма, криминал, 2000) [НDRi ...
  • Драйв / Drive (Николас Виндинг Рёфн, боевик, триллер, драма, криминал, 2011 ...
  • Сонатина / Sonatine (Такеши Китано, Боевик, Драма, Триллер, 1993) [DVDRip-A ...
  • Эд Вуд / Ed Wood (Тим Бёртон, драма, комедия, биография, 1994) [BDRip-AVC, ...
  • Брат якудзы / Brother (Такеши Китано, триллер, 2000) [BDRip-AVC, Авторский ...
  • Преследование / Слежка / Following (Кристофер Нолан, триллер, драма, кримин ...
  • Брат якудзы / Brother (Такеши Китано, триллер, драма, криминал, 2000) [HDRi ...
  • Брат якудзы / Brother ( Такеши Китано / триллер, драма / 2000г) [DVDRip , ...
  • Беспредел / Outrage (Такеши Китано, драма, криминал, 2010) [HDRip-AVC, Русс ...
  • Беспредел / Outrage (Такеши Китано, драма, криминал, 2010) [HDRip-AVC, Русс ...
  • Быстрее пули / Faster (Джордж Тиллман мл,боевик, триллер, драма, криминал , ...
  • Брат якудзы / Brother (Такеши Китано, триллер, драма, криминал, 2000) [DVDR ...
  • Информация
    Посетители, находящиеся в группе Гости, не могут оставлять комментарии к данной публикации.