вход на сайт

Имя пользователя :
Пароль :

Восстановление пароля Регистрация
Океан (Михаил Косырев-Нестеров, драма, 2008) [DVDRip, Профессиональный (одноголосый, закадровый)+испанский]
Рейтинг:
(голосов: 1)



[img]{THEME}/images/logopost.png[/img]



Океан

Год выпуска: 2008
Страна: Россия, Куба
Производство: Instituto Cubano del Arte e Industrias Cinematograficos (ICAIC)
Жанр: драма

Режиссёр: Михаил Косырев-Нестеров
В ролях: Хорхе Луис Кастро, Монсе Дуани Гонзалез, Алина Родригез Руис

Перевод: Профессиональный (одноголосый, закадровый)+испанский
Субтитры: Отсутствуют

Описание:
Джоэль, старший брат в бедной семье кубинских рыбаков, влюблен в Марисэль. Но семья девушки предпочитает ему более выгодного мужа — пограничника Анхеля. В надежде на новую жизнь Джоэль отправляется в Гавану. Там он знакомится с людьми из другой среды, которые помогают ему стать чемпионом по боксу. Новая встреча с Марисэль трагически меняет его судьбу. И только океан может быть его спасением.


Дополнительно:
MediaInfo ▼Text
Общее
Полное имя :L:Проверить и раздатьОкеанokeanokean.avi
Формат :AVI
Размер :1.37 GiB
Продолжительность :01:43:37.800
Общий поток :1 898 Kbps
Программа кодирования :VirtualDubMod 1.5.10.2 (build 2540/release)
Библиотека кодирования :VirtualDubMod build 2540/release

Видео
Идентификатор :0
Формат :MPEG-4 Visual
Профиль формата :[email protected]
Параметр BVOP формата :No
Параметр Qpel формата :No
Параметр GMC формата :0
Параметр Matrix формата :Default (H.263)
Идентификатор кодека :XVID
Продолжительность :1h 43mn 37s 800ms
Битрейт :1 628 Kbps
Ширина :720 pixels
Высота :304 pixels
Соотношение сторон :2.368
Частота кадров :25.000 fps
Глубина цвета :8 bits
Подвыборка цветности :4:2:0
Цветовое пространство :YUV
Тип развертки :Progressive
Бит/(Пиксели*Кадры) :0.297
Размер потока :1.18 GiB (86%)
Библиотека кодирования :XviD0046

Аудио #1
Идентификатор :1
Формат :MPEG Audio
Идентификатор кодека :55
Продолжительность :01:43:37.800
Вид битрейта :Constant
Битрейт :128 Kbps
Канал(ы) :2 channels
Частота :48.0 KHz
Метод сжатия :Lossy
Размер потока :94.9 MiB (7%)

Аудио #2
Идентификатор  
6c2294705e7a255abe335ec0cf6d838be697016eОкеан (Михаил Косырев-Нестеров, драма, 2008) [DVDRip, Профессиональный (одноголосый, закадровый)+испанский] Океан (Михаил Косырев-Нестеров, драма, 2008) [DVDRip, Профессиональный (одноголосый, закадровый)+испанский] " />

Аплоадер: Админ, дата: 8-11-2012, 22:04, торрент скачан: 359 раз

Понравилась раздача? Посмотрите эти:
  • Воздыхатель / Le soupirant (Пьер Этекс, комедия, 1962) [DVDRip, Профессиона ...
  • Человек идёт за солнцем (Михаил Калик, драма, 1961) [DVDRip, Не требуется]
  • Свидетель обвинения / Witness for the Prosecution (Билли Уайлдер, драма, де ...
  • Покаяние (Тенгиз Абуладзе, драма, комедия, 1984) [DVDRip, Профессиональный ...
  • Королевский моряк / Single-Handed (Рой Боултинг, боевик, драма, военный, 19 ...
  • Ограбление / Bareuge salja (Hee-chan Ra, Комедия, 2007) [DVDRip, Профессион ...
  • Партизанская эскадрилья / Partizanska eskadrila (Хайрудин Крвавац, драма, в ...
  • След кота (Уильям А. Уэллмен, драма, вестерн, 1954) [DVDRip, Любительский ( ...
  • Пуск торпеды / Torpedo Run (Джозеф Пивни, драма, военный, 1958) [DVDRip, Ав ...
  • Преждевременное погребение / Premature Burial (Роджер Корман, ужасы, драма, ...
  • Эта жизнь для тебя / Die Zeit, die man Leben nennt (Шарон фон Витерсхайм, д ...
  • Любовники / Les amants (Луи Малль, драма, 1958) [DVDRip, Профессиональный ( ...
  • Жить, чтобы жить / Vivre Pour Vivre (Клод Лелуш, драма, 1967) [DVDRip, Проф ...
  • Лиловая равнина / The Purple Plain (Роберт Пэрриш, боевик, драма, приключен ...
  • Бог знает, мистер Аллисон / Heaven Knows, Mr. Allison (Джон Хьюстон, боевик ...
  • Конвейер / Blue Collar (Пол Шредер, драма, криминал, 1977) [DVDRip, Професс ...
  • Розенкранц и Гильденштерн мертвы / Rosencrantz & Guildenstern Are Dead (Том ...
  • Урок любви / En lektion i karlek (Ингмар Бергман, драма, комедия, 1954) [DV ...
  • Ростовщик / The Pawnbroker (Сидни Люмет, драма, 1964) [DVDRip, Любительский ...
  • На хуторе у леса / Na samote u lesa (Иржи Менцель, драма, комедия, семейный ...
  • Повышение / The Promotion (Стив Конрад, Комедия, 2008) [DVDRip, Профессиона ...
  • Властелин джунглей / Ghatothkach (Сингитам Шриниваса Рао, мультфильм, 2008) ...
  • Улица Прери / Rue des Prairies (Дени де Ла Пательер, драма, 1959) [DVDRip, ...
  • Убей! / Kiru (Кихачи Окамото, боевик, драма, комедия, 1968) [DVDRip, Профес ...
  • Медведи и я / The Bears and I (Бернард МакЭвети, драма, семейный, 1974) [DV ...
  • Информация
    Посетители, находящиеся в группе Гости, не могут оставлять комментарии к данной публикации.