вход на сайт

Имя пользователя :
Пароль :

Восстановление пароля Регистрация
Дикие травы / Les herbes folles (Ален Рене, драма, 2009) [DVDRip, Профессиональный (многоголосый закадровый)]
Рейтинг:
(голосов: 1)



[img]{THEME}/images/logopost.png[/img]



Дикие травы / Les herbes folles

Год выпуска: 2009
Страна: Франция, Италия
Производство: Studio Canal
Жанр: драма

Режиссёр: Ален Рене
В ролях: Андре Дюссолье, Сабин Азема, Эммануэль Дево, Матье Амальрик, Энн Консиньи, Мишель Вюйермоз, Эдуард Баэр, Анни Корди, Сара Форестье, Николя Дювошель

Перевод: Профессиональный (многоголосый закадровый)
Субтитры: нет

Описание: Для Жоржа и Маргерит потеря и находка кошелька приоткрывают дверь в романтическое приключение. Изучив документы владелицы, Жорж уже не может просто отнести в полицию найденный им красный бумажник. Да и Маргерит не может просто забрать его, не умерев от любопытства по поводу того, кто же его нашел. Пока они выполняют светский ритуал выражения и принятия благодарностей, в их спокойную жизнь врывается буря.

IMDB: 6.40 (2 041)


Качество: DVDRip
Продолжительность: 01:39:46

Формат: AVI
Видео кодек: XviD
Аудио кодек: AС3
Видео: 720x304, 25 fps, ~1697 kbps avg,
Аудио: 48 kHz, 2 ch, ~256.00 kbps avg

"Награды" ▼Сезар, 2010 год
Номинации (4):
Лучший фильм
Лучший адаптированный сценарий
Лучшая работа оператора
Лучший монтаж

Каннский кинофестиваль, 2009 год
Победитель (1):
Особый приз жюри
Номинации (1):
Золотая пальмовая ветвь


"MediaInfo" ▼General
Format : AVI
Format/Info : Audio Video Interleave
File size : 1.37 GiB
Duration : 1h 39mn
Overall bit rate : 1 963 Kbps
Writing application : VirtualDubMod 1.5.4.1 (build 2178/release)
Writing library : VirtualDubMod build 2178/release

Video
ID : 0
Format : MPEG-4 Visual
Format profile : Advanced [email protected]
Format settings, BVOP : Yes
Format settings, QPel : No
Format settings, GMC : No warppoints
Format settings, Matrix : Custom
Codec ID : XVID
Codec ID/Hint : XviD
Duration : 1h 39mn
Bit rate : 1 697 Kbps
Width : 720 pixels
Height : 304 pixels
Display aspect ratio : 2.35:1
Frame rate : 25.000 fps
Color space : YUV
Chroma subsampling : 4:2:0
Bit depth : 8 bits
Scan type : Progressive
Bits/(Pixel*Frame) : 0.310
Stream size : 1.18 GiB (86%)
Writing library : XviD 58

Audio
ID : 1
Format : AC-3
Format/Info : Audio Coding 3
Mode extension : CM (complete main)
Codec ID : 2000
Duration : 1h 39mn
Bit rate mode : Constant
Bit rate : 256 Kbps
Channel(s) : 2 channels
Channel positions : Front: L R
Sampling rate : 48.0 KHz
Bit depth : 16 bits
Stream size : 183 MiB (13%)
Alignment : Split accross interleaves
Interleave, duration : 40 ms (1.00 video frame)
Interleave, preload duration : 500 ms


75cdbd7ff9febbeb3c0b7df8e8efa962382f92baДикие травы / Les herbes folles (Ален Рене, драма, 2009) [DVDRip, Профессиональный (многоголосый закадровый)] Дикие травы / Les herbes folles (Ален Рене, драма, 2009) [DVDRip, Профессиональный (многоголосый закадровый)] " />

Аплоадер: Админ, дата: 6-08-2012, 20:39, торрент скачан: 359 раз

Понравилась раздача? Посмотрите эти:
  • Погнали! / Getaway (Кортни Соломон, Боевик, Криминал, 2013) [HDRip, Професс ...
  • Вирус / Flu (Ким Сон Су, Драма, 2013) [HDTVRip, Любительский (двухголосый з ...
  • Орудие смерти / A-i-deul... (Ли Гю Ман, Триллер, криминал, 2011) [DVDRip, П ...
  • Верное дельце / Une pure affaire (Александр Коффре, Боевик, Комедия, Кримин ...
  • Мои герои / Mes heros (Эрик Беснард, комедия, 2012) [HDRip, Профессиональны ...
  • [EN] 42 / 42 (Брайан Хелгеленд, Драма, биография, спорт, 2013) [BDRip, Ориг ...
  • Мужество / Wymyk (Грег Зглински, драма, 2011) [DVDRip, Любительский (одного ...
  • 42 / 42 (Брайан Хелгеленд, драма, биография, спорт, 2013) [BDRip, Профессио ...
  • Звук моего голоса / Sound of My Voice (Зал Батманглидж, триллер, драма, 201 ...
  • Слепой поворот / Blind Turn (Роберт Орр, Триллер, драма, детектив, 2012) [W ...
  • 23:59 / 23:59 (Гилберт Чан, Ужасы, 2011) [HDRip, Любительский (одноголосый ...
  • В хлам / Smashed (Джеймс Понсольдт, Драма, комедия, 2012) [HDRip, Профессио ...
  • Псы войны / The Dogs of War (Джон Ирвин, боевик, драма, приключения, военны ...
  • Тюремщик / Screwed (Рег Тревисс / Reg Traviss, Драма, 2011) [DVDRip , Люби ...
  • Плохая актриса / Bad Actress (Роберт Ли Кинг, комедия, 2011) [DVDRip, Профе ...
  • Супер циклон / Super Cyclone (Лиз Адамс / Liz Adams, боевик, 2012) [HDRip, ...
  • Захват / Carjacked (Джон Бонито, триллер, 2011)[BDRip, Профессиональный (мн ...
  • Tank Feat. T.I. & Kris Stephens / Compliments [2012, RnB,Hip-Hop, HDRip]
  • Неделя в NBA с В.Гомельским / НТВ+ [28.06.2011, SD, XviD, RU, SAT]
  • Супершторм в Сиэтле / Seattle Superstorm (Джейсон Бурк, фантастика, боевик ...
  • Все матчи Dream Team на Олимпийских играх в Барселоне [1992 г., Баскетбол, ...
  • Инкубус / Inkubus (Гленн Чиано, Ужасы, 2011) [DVDRip, Профессиональный (мно ...
  • Девушки в опасности / Damsels in Distress (Уит Стиллман, драма, мелодрама, ...
  • Глаз шторма / The Eye of the Storm (Фред Скеписи, Драма, 2011) [HDRip, Проф ...
  • Табу / Tabu (Мигель Гомеш, Драма, мелодрама, 2012) [DVDRip, Профессиональны ...
  • Информация
    Посетители, находящиеся в группе Гости, не могут оставлять комментарии к данной публикации.