вход на сайт

Имя пользователя :
Пароль :

Восстановление пароля Регистрация
Гавр / Le Havre (Аки Каурисмяки, драма, комедия, 2011) [HDRip, Любительский (одноголосный, закадровый) +Оригинал]
Рейтинг:
(голосов: 1)



[img]{THEME}/images/logopost.png[/img]



«Гавр / Le Havre»

"Золотая пальмовая ветвь"

Год выпуска: 2011
Страна: ГерманияФинляндияФранция
Производство: Arte France, Pyramide Productions, ZDF/Arte
Жанр: драма, комедия

Режиссёр: Аки Каурисмяки
В ролях: Андре Вильм, Кати Оутинен, Жан-Пьер Дарруссен, Блондин Мигель, Элина Сало, Эвелин Диди, Куок Дунг Нгуйен, Литтл Боб

Перевод: Любительский (одноголосный, закадровый) +Оригинал
Озвучка: не известно
Субтитры: нет

Описание
Марсель Маркс, в прошлом богемный писатель, переселяется в портовый город Гавр и становится чистильщиком сапог. Занятие, хоть и не очень хлебное, дает Марселю ощущение пользы для людей. Поставив крест на своих писательских амбициях, Марсель вполне доволен жизнью, проводя ее между работой, домом и ближайшим кабаком. Но однажды судьба сталкивает его с ребенком-иммигрантом из Черной Африки, а жена Марселя Арлетти тяжело заболевает. И вновь Марсель оказывается перед холодной стеной равнодушия и пробует победить слепую государственную машину, надвигающуюся на ребенка-беженца. Оружие Марселя — только врожденный оптимизм и поддержка многочисленных друзей. Сможет ли он победить в этой неравной борьбе?..



Доп. информация
Премьеры ▼премьера (мир)17 мая 2011
премьера (РФ)19 июля 2012, «Русский репортаж»
релиз на Blu-Ray не известно
релиз на DVD не известно
MediaInfo ▼TextFormat : AVI
Format/Info : Audio Video Interleave
File size : 1.46 GiB
Duration : 1h 29mn
Overall bit rate : 2 340 Kbps
Writing application : VirtualDubMod 1.5.10.2 (build 2540/release)
Writing library : VirtualDubMod build 2540/release
Video #0
ID : 0
Format : MPEG-4 Visual
Format profile : [email protected]
Format settings, BVOP : Yes
Format settings, QPel : No
Format settings, GMC : No warppoints
Format settings, Matrix : Default (MPEG)
Codec ID : XVID
Codec ID/Hint : XviD
Duration : 1h 29mn
Bit rate : 1 941 Kbps
Width : 704 pixels
Height : 384 pixels
Display aspect ratio : 16:9
Frame rate : 25.000 fps
Resolution : 24 bits
Colorimetry : 4:2:0
Scan type : Progressive
Bits/(Pixel*Frame) : 0.287
Stream size : 1.21 GiB (83%)
Writing library : XviD 1.2.1 (UTC 2008-12-04)
Audio #1
ID : 1
Format : MPEG Audio
Format version : Version 1
Format profile : Layer 3
Codec ID : 55
Codec ID/Hint : MP3
Duration : 1h 29mn
Bit rate mode : Constant
Bit rate : 192 Kbps
Channel(s) : 2 channels
Sampling rate : 48.0 KHz
Resolution : 16 bits
Stream size : 123 MiB (8%)
Alignment : Aligned on interleaves
Interleave, duration : 40 ms (1.00 video frame)
Interleave, preload duration : 504 ms
Audio #2
ID : 2
Format : MPEG Audio
Format version : Version 1
Format profile : Layer 3
Codec ID : 55
Codec ID/Hint : MP3
Duration : 1h 29mn
Bit rate mode : Constant
Bit rate : 192 Kbps
Channel(s) : 2 channels
Sampling rate : 48.0 KHz
Resolution : 16 bits
Stream size : 123 MiB (8%)
Alignment : Aligned on interleaves
Interleave, duration : 40 ms (1.00 video frame)
Interleave, preload duration : 504 ms

Тех. данные
Качество: HDRip
Продолжительность: 01:29:33 часа

Формат: AVI
Видео кодек: XviD
Аудио кодек: MP3 2.0
Видео: 720x384 (1,83:1), 25 fps, XviD, ~ 1941 kbps avg, 0.28 bit/pixel
Аудио: 48.00 kHz, MP3 2.0, 2 ch, ~ 192 kbps avgРусский
Аудио: 48.00 kHz, MP3 2.0, 2 ch, ~ 192 kbps avgФранцузский


|Cтол заказов| Наши раздачи| Набор в группу| Сказать спасибо|


14b91273cc07049bfe668eddea5b9cdcb3bad21bГавр / Le Havre (Аки Каурисмяки, драма, комедия, 2011) [HDRip, Любительский (одноголосный, закадровый) +Оригинал] Гавр / Le Havre (Аки Каурисмяки, драма, комедия, 2011) [HDRip, Любительский (одноголосный, закадровый) +Оригинал] " />

Аплоадер: Админ, дата: 9-03-2012, 12:33, торрент скачан: 359 раз

Понравилась раздача? Посмотрите эти:
  • Мужество / Wymyk (Грег Зглински, драма, 2011) [DVDRip, Любительский (одного ...
  • Берлинское дело / The Berlin File (Рю Сын Ван, Боевик, триллер, драма, 2013 ...
  • 23:59 / 23:59 (Гилберт Чан, Ужасы, 2011) [HDRip, Любительский (одноголосый ...
  • Игра смерти / Game of death (Роберт Клауз, Саммо Хунг Кам-Бо, Брюс Ли, боев ...
  • Цель Номер Один / Zero Dark Thirty (Кэтрин Бигелоу, боевик, триллер, драма, ...
  • Скуби-Ду! Маска Синего Сокола / Scooby-Doo! Mask Of The Blue Falcon (Оливье ...
  • [EN] Команда: На пути Аллаха / Takiye: Allah yolunda (2010, Бен Вербонг, тр ...
  • Новые парни турбо / New Kids Turbo (Штефен Хаарс, Боевик, комедия, 2010) [H ...
  • Формула 1 2011 / Этап 17 из 19 / Гран-При Индии / Гонка / Спорт 1 [30.10.20 ...
  • Чемпионат Европы 2012 / Группа D / 1-й тур / Украина - Швеция / Спорт 1 [11 ...
  • Рухнувшие небеса / Falling Skies // Cезон 1, эпизоды с 1 по 10 (из 10) (фа ...
  • Неделя в NBA с В.Гомельским / НТВ+ [28.06.2011, SD, XviD, RU, SAT]
  • Вскрытие инопланетянина/Alien Autopsy (Джонни Кэмпбелл, Комедия, фантастика ...
  • Неприкасаемые / Intouchables (Оливье Накаш, Эрик Толедано, Драма, 2011) [BD ...
  • Мистер Ганджубас / Mr. Nice (Бернард Роуз, Драма, комедия, 2010)[HDRip, Про ...
  • Романтики / The Romantics (Галт Нидерхоффер, Драма, мелодрама, комедия, 201 ...
  • Чемпионат Европы 2012 / Группа B / 1-й тур / Германия - Португалия / Спорт ...
  • Гавр / Le Havre (Аки Каурисмяки, Драма, комедия, 2011) [HDRip, Профессионал ...
  • Гавр / Le Havre (Аки Каурисмяки, Драма, комедия, 2011) [HDRip, Профессионал ...
  • Полусвет / Half Light (Крэйг Розенберг, Ужасы, триллер, драма, детектив, 20 ...
  • День второй: Битва за Нью-Йорк / Battle: New York, Day 2 (Эндрю Беллвар, фа ...
  • Мгновение любви / Here (Браден Кинг, Драма, мелодрама, приключения, 2011) [ ...
  • Искажение / Skew (Сейв Челенз, ужасы, триллер, 2011) [HDRip, Профессиональн ...
  • Ничего, кроме правды / Nothing But the Truth (Род Лури, триллер, драма, 200 ...
  • Обрезание / Excision (Ричард Бейтс мл., ужасы, драма, комедия,2012) [HDRip, ...
  • Информация
    Посетители, находящиеся в группе Гости, не могут оставлять комментарии к данной публикации.