вход на сайт

Имя пользователя :
Пароль :

Восстановление пароля Регистрация
Все будет зашибись (Влад Резников, документальная драма нашего времени, 2011) [HDRip-AVC, Дублированный ]
Рейтинг:
(голосов: 1)



[img]{THEME}/images/logopost.png[/img]



Всё будет зашибись

Год выпуска: 2011
Страна: Россия
Производство: Киностудия Риск
Жанр: документальная драма нашего времени

Режиссёр: Влад Резников
В ролях: жители бамовского поселка в Амурской области

Перевод: Дублированный
Субтитры: Нет

Описание: Как важно в жизни уметь видеть красоту во всем, даже если судьба давным-давно забыла тебя в глухом бамовском поселке. Школьный библиотекарь учит детей мечтать. Ведь именно это отличает человека от животного. Пока еще подростки посмеиваются над её причудами и альтруизмом. «Главное, чтобы все было в жизни зашибись! - констатирует один из участников документальной истории». Она начала сомневаться, что теория Дарвина еще работает в этих суровых краях. Скорее наоборот, человек превращается в обезьяну. Не хотим работать, ничего не хотим знать. Неужели наша страна - это навоз, на котором растут другие народы? Местные китайцы удивляются - "сколько земли в России, а даже картошку везете из Китая". Но возможно, когда школьники подрастут, то вспомнят простые уроки доброты причудливой Генрики. Тем не менее, она сама больше всего на свете мечтает уехать из одичавшего поселка в свой родную культурную Латвию. И все-таки однажды покупает билет на поезд до дома. Но в последний момент понимает - она нужна тут, этим детям, которые не ведают что творят. Мечтания и романтику главная героиня противопоставляет безразличию окружающего общества. Похоже, ничем другим «оскотинивание» остановить уже невозможно.
При частичной финансовой поддержке Министерства культуры РФ, «Киностудия РИСК», 2011 г.


Доп. информация: "Все будет за#@%сь" отмечен фестивалем Артдокфест и "Национальной премией ЛАВР" как один из лучших арт-фильмов года
адрес для рецензий и предложений
Качество: HDRip-AVC
Продолжительность: 00:55:00 час.

Формат: MP4
Видео кодек: MPEG-4 Visual
Аудио кодек: AAC
Видео:MPEG-4 H.264 805 Mb, 512х288 скорость потока 2376 кбит в сек, 25 кадров
Аудио:MPEG-4 127 кбит в сек, 2(стерео), 48кГц
"Media Info" ▼ Формат : MPEG-4
Профиль формата : Base Media / Version 2
Идентификатор кодека : mp42
Размер файла : 806 Мбайт
Продолжительность : 55 м.
Режим общего битрейта : Переменный
Общий поток : 2045 Кбит/сек
Дата кодирования : UTC 2011-10-30 12:16:14
Дата пометки : UTC 2011-10-30 12:16:14
Видео
Идентификатор : 1
Формат : MPEG-4 Visual
Профиль формата : [email protected]
Параметр BVOP формата : Нет
Параметр QPel формата : Нет
Параметр GMC формата : Без точки перехода
Параметр матрицы формата : Default (H.263)
Идентификатор кодека : 20
Продолжительность : 55 м.
Вид битрейта : Переменный
Битрейт : 1912 Кбит/сек
Максимальный битрейт : 4292 Кбит/сек
Ширина : 512 пикселей
Высота : 288 пикселей
Соотношение сторон : 16:9
Режим частоты кадров : Постоянный
Частота кадров : 25,000 кадров/сек
Цветовое пространство : YUV
Субдискретизация насыщенности : 4:2:0
Битовая глубина : 8 бит
Тип развёртки : Прогрессивная
Метод сжатия : С потерями
Бит/(Пиксели*Кадры) : 0.519
Размер потока : 754 Мбайт (94%)
Язык : English
Дата кодирования : UTC 2011-10-30 12:16:14
Дата пометки : UTC 2011-10-30 12:16:14
Аудио
Идентификатор : 2
Формат : AAC
Формат/Информация : Advanced Audio Codec
Профиль формата : LC
Идентификатор кодека : 40
Продолжительность : 55 м.
Вид битрейта : Переменный
Битрейт : 127 Кбит/сек
Максимальный битрейт : 130 Кбит/сек
Каналы : 2 канала
Расположение каналов : Front: L R
Частота : 48,0 КГц
Метод сжатия : С потерями
Размер потока : 50,0 Мбайт (6%)
Язык : English
Дата кодирования : UTC 2011-10-30 12:16:14
Дата пометки : UTC 2011-10-30 12:16:14


6aa4688664dca0078b86661dcfb54a02765af460Все будет зашибись (Влад Резников, документальная драма нашего времени, 2011) [HDRip-AVC, Дублированный ] Все будет зашибись (Влад Резников, документальная драма нашего времени, 2011) [HDRip-AVC, Дублированный ] " />

Аплоадер: Админ, дата: 6-01-2012, 17:56, торрент скачан: 359 раз

Понравилась раздача? Посмотрите эти:
  • Kiev / Hyper Time Lapse [2011, Art, Travel, Nature, MasterRip]
  • After School Red / In The Night Sky [2011, KPop, Master]
  • Натали / О боже, какой мужчина [2013, Pop, HDRip]
  • Герои / Закаты алые [2012, Pop, WebRip]
  • Miranda Cosgrove / Dancing Crazy [2011, Pop, WEB-DLRip 720p]
  • Madcon / The Signal [2013, Hip-Hop, HDRip]
  • Elvira T / Всё Решено [2011, Pop, HDRip]
  • Avril Lavigne / Smile [2011, Pop, HDRip]
  • Ariana Grande - ft. Mac Miller / The Way [2013, Pop, WEB-DLRip 1080p]
  • Дикие собаки / Wild Dogs (Кэтрин Хикс, короткометражный анимационный фильм, ...
  • Злые птицы: Хэллоуин / Angry Birds: HamOWeen (Джей Ройвайнен, Мультфильм, к ...
  • Чемпионат Англии 2012-2013 / 18-й тур / Челси - Астон Вилла / Спорт 1 [23.1 ...
  • Eminem / Space Bound [2011, Rap, WEBRip]
  • Dee-Dee / Running Away (Extended Mix by Radu Sirbu) [2011, Pop, HDRip]
  • Guf / Ice Baby [320x240] [2010, Rap, TVRip]
  • Нонито Донэйр - Хорхе Арсе / Nonito Donaire vs Jorge Arce [Бокс, 15.12.2012 ...
  • Дорога на... / Road to (Таисия Игуменцева, Комедия, короткометражный, 2011) ...
  • Гарри Топор / Танцы с покойниками [2011, Rap, HDRip]
  • Hollywood FM / Striping off [2010, Pop, HDTV 1080p]
  • Real NBA - Top plays of the 2010-2011 NBA Season [15.06.2011, Баскетбол, HD ...
  • Мама для мамонтенка (Олег Чуркин/мультфильм/1981) (320х240) [DVDRip-AVC, О ...
  • Секс и Дзен 3D / 3D rou pu tuan zhi ji le bao jian (Кристофер Сунь Лэп Ки, ...
  • Страшно красив / Beastly (Даниел Барнз, фэнтези, драма, мелодрама, 2011) [H ...
  • Тимур Родригез / Лучше не будет[2011, Pop, HDRip]
  • Королевство / The Kingdom (Питер Берг, боевик, триллер, драма, 2007) [HDRip ...
  • Информация
    Посетители, находящиеся в группе Гости, не могут оставлять комментарии к данной публикации.