вход на сайт

Имя пользователя :
Пароль :

Восстановление пароля Регистрация
Кошмар / Nightmare / Qing Yan (Херман Яу, ужасы, триллер, 2012) [DVDRip, Любительское (двухголосое)]
Рейтинг:
(голосов: 1)



[img]{THEME}/images/logopost.png[/img]



Кошмар / Qing Yan

Год выпуска: 2012
Страна: Китай
Жанр: Ужасы, Триллер

Режиссёр: Херман Яу
В ролях: Ксюан Хуанг, Фиона Сит, Чжоу Чучу

Перевод: Любительское (двухголосое) [den904 и DeadSno], перевод [DeadSno]
Субтитры: Отсутствуют

Описание: Хао Донг страдает от бессонницы и однажды он выходит на балкон и видит прекрасную соседку, рисующую странную картину...Странность заключается в том, что он может предсказать любое движение этой незнакомки...Девушка Хао Донга считает, что Юэгуан - порождение его фантазии, спровоцированной хронической бессонницей. Но память Хао Донга хранит более страшные, истинные воспоминания того, что же произошло с ним в прошлом.



Качество: DVDRip | Сэмпл
Продолжительность: 01:25:40 час.

Формат: AVI
Видео кодек: XviD
Аудио кодек: AC3
Видео: 720x304 (2,35:1)29.970 fps XviD MPEG-4 ~1825 kbps avg 0.278 bit/pixel
Аудио#1: 48 kHz, MPEG Layer 3, 6 ch, 448 kbps avg

MediaInfo ▼TextОбщее
Формат : AVI
Формат/Информация : Audio Video Interleave
Размер файла : 1,37 Гбайт
Продолжительность : 1 ч. 25 м.
Общий поток : 2285 Кбит/сек
Название фильма : Nightmare (2012)
Программа кодирования : VirtualDubMod 1.5.10.3 (build 2550/release)
Библиотека кодирования : VirtualDubMod build 2550/release

Видео
Идентификатор : 0
Формат : MPEG-4 Visual
Профиль формата : Advanced [email protected]
Параметр BVOP формата : 2
Параметр QPel формата : Нет
Параметр GMC формата : Без точки перехода
Параметр матрицы формата : Выборочная
Режим смешивания : Сжатый битовый поток
Идентификатор кодека : XVID
Идентификатор кодека/Подсказка : XviD
Продолжительность : 1 ч. 25 м.
Битрейт : 1825 Кбит/сек
Ширина : 720 пикселей
Высота : 304 пикселя
Соотношение сторон : 2,35:1
Частота кадров : 29,970 кадров/сек
Цветовое пространство : YUV
Субдискретизация насыщенности : 4:2:0
Битовая глубина : 8 бит
Тип развёртки : Прогрессивная
Метод сжатия : С потерями
Бит/(Пиксели*Кадры) : 0.278
Размер потока : 1,09 Гбайт (80%)
Библиотека кодирования : XviD 65

Аудио
Идентификатор : 1
Формат : AC-3
Формат/Информация : Audio Coding 3
Расширение режима : CM (complete main)
Параметр Endianness формата : Big
Идентификатор кодека : 2000
Продолжительность : 1 ч. 25 м.
Вид битрейта : Постоянный
Битрейт : 448 Кбит/сек
Каналы : 6 каналов
Расположение каналов : Front: L C R, Side: L R, LFE
Частота : 48,0 КГц
Битовая глубина : 16 бит
Метод сжатия : С потерями
Размер потока : 275 Мбайт (20%)
Выравнивание : Разделение по промежуткам
Продолжительность промежутка : 33 мс. (1,00 видеокадр)
Время предзагрузки промежутка : 500 мс.




a87af0b9ce334a8beba9f7ca0e9c3c071ca0947dКошмар / Nightmare / Qing Yan (Херман Яу, ужасы, триллер, 2012) [DVDRip, Любительское (двухголосое)] Кошмар / Nightmare / Qing Yan (Херман Яу, ужасы, триллер, 2012) [DVDRip, Любительское (двухголосое)] " />

Аплоадер: Админ, дата: 7-01-2013, 17:05, торрент скачан: 359 раз

Понравилась раздача? Посмотрите эти:
  • Околофутбола (Антон Борматов, драма, криминал, 2013) [DVDRip, Не требуется] ...
  • Миллион для чайников / The Brass Teapot (Рамаа Мосли, Фэнтези, триллер, ком ...
  • Чужеродное вторжение / Alien Raiders (Бен Рок, Фантастика, триллер, ужасы, ...
  • Глушь / Resurrection County (Матт Зеттел, Ужасы,триллер, 2008) [DVDRip, Про ...
  • Жил-был тигр / Ek Tha Tiger (Кабир Кхан, боевик, триллер , 2012) [ HDRip, ...
  • Легенда о МорДу / The Legend of MorDu (Брайан Ларсен, Короткометражный, ска ...
  • Отбой / Taps (Харольд Беккер, Драма, 1981) [DVDRip, Профессиональный (много ...
  • Путешествие на дно моря / Voyage to the Bottom of the Sea (Ирвин Аллен / I ...
  • Кажется, я люблю свою жену / I Think I Love My Wife (Крис Рок, Драма, мелод ...
  • Вечерний Ургант // Сезон 2. Выпуск 56 (ТВ-шоу, 11.12.2012) [SATRip, Не треб ...
  • Любовь по расписанию / Поезд (Сергей Мезенцев, мелодрама, 2012) [HDTVRip, Н ...
  • Вечерний Ургант // Сезон 2. Выпуск 62 (ТВ-шоу, 19.12.2012) [SATRip, Не треб ...
  • Вечерний Ургант // Сезон 2. Выпуск 63 (ТВ-шоу, 20.12.2012) [SATRip, Не треб ...
  • Вечерний Ургант // Сезон 2. Выпуск 68 (ТВ-шоу, 27.12.2012) [SATRip, Не треб ...
  • Дорога на... / Road to (Таисия Игуменцева, Комедия, короткометражный, 2011) ...
  • Тихая война / The Silent War (Феликс Чонг, Сиу Фай Мак, Tриллер, драма, кри ...
  • Покорить высоту / Take It to the Limit (Сэм Кит / Sam Kieth, семейный, 2000 ...
  • У дьявола нет лица / Plasterhead (Кевин Хиггинс / Kevin Higgins, ужасы, три ...
  • Боец из трущоб / Gutter King (Кейт Алан Моррис / Keith Alan Morris, боевик, ...
  • Кошмар / Nightmare / Qing Yan (Херман Яу, ужасы, триллер, 2012) [DVDRip, Лю ...
  • Детский душ / Baby Shower (Pablo Illanes, Ужасы, 2011) [DVDRip, Любительски ...
  • Челюсти 3D / Shark Night 3D (Дэвид Р. Эллис, ужасы, триллер, 2011) [HDRip, ...
  • Застенок / The Jailhouse (Билли Льюис, Ужасы, Триллер, Детектив, 2009) [DV ...
  • Человек из банки (Иван Кульнев, Комедия, 2012) [DVDRip, Не требуется]
  • Сдохни, Джон Такер / John Tucker Must Die (Бетти Томас, мелодрама, комедия, ...
  • Информация
    Посетители, находящиеся в группе Гости, не могут оставлять комментарии к данной публикации.