вход на сайт

Имя пользователя :
Пароль :

Восстановление пароля Регистрация
Тихая война / The Silent War (Феликс Чонг, Сиу Фай Мак, Tриллер, драма, криминал, 2012) [HDRip, Любительский (двухголосый) [den904 и DeadSno]]
Рейтинг:
(голосов: 1)



[img]{THEME}/images/logopost.png[/img]



Тихая война / The Silent War

Год выпуска: 2012
Страна: Гонконг Китай
Производство: Wanda Media
Жанр: Tриллер, драма, криминал

Режиссёр: Феликс Чонг, Сиу Фай Мак
В ролях: Чжоу Сюнь, Тони Люн Чу Вай, Мевис Фэн и другие

Перевод: Любительский (двухголосый) [den904 и DeadSno]
Субтитры:Отсутствуют

Описание
В 1950 году в республике Китай пришло к власти новое правительство. Революционеры в разных частях Китая стали организовывать заговоры с целью поднять восстание. Обстановка в стране стала неспокойной. В этих условиях возросла роль особого, 701-го отдела, миссия которого состояла в слежке и сборе данных о вражеском заговоре, ведущимся посредством телеграфа. Внезапно, 126 вражеских каналов пропадают и отдел остается без данных… Теперь задача руководителя отдела и его подчиненных — найти единственного человека, который сможет обнаружить каналы врага — слепого настройщика фортепиано Хэ Бинга. На его розыски отправлена очаровательная и опасная шпионка Чан Сюэ-нин.
Доп. информация
Премьеры ▼премьера (мир) 7 августа 2012

Mediainfo ▼TextОбщее
Полное имя : D:Besshumnaja.vojna.2012.L2.HDRip..avi
Формат : AVI
Формат/Информация : Audio Video Interleave
Размер файла : 1,45 Гбайт
Продолжительность : 1 ч. 59 м.
Общий поток : 1737 Кбит/сек
Название фильма : The Silent War (2012)
Режиссёр : Релиз группа "Колобок"
Жанр : Crime/Thriller/Drama
Программа кодирования : VirtualDubMod 1.5.10.3 | www.virtualdub-fr.org || (build 2550/release)
Формат оригинала/Имя : Movie
Правообладатель : ed_rez

Видео
Идентификатор : 0
Формат : MPEG-4 Visual
Профиль формата : Advanced [email protected]
Параметр BVOP формата : 2
Параметр QPel формата : Нет
Параметр GMC формата : Без точки перехода
Параметр матрицы формата : Выборочная
Режим смешивания : Сжатый битовый поток
Идентификатор кодека : XVID
Идентификатор кодека/Подсказка : XviD
Продолжительность : 1 ч. 59 м.
Битрейт : 1343 Кбит/сек
Ширина : 720 пикселей
Высота : 304 пикселя
Соотношение сторон : 2,35:1
Частота кадров : 24,000 кадра/сек
Цветовое пространство : YUV
Субдискретизация насыщенности : 4:2:0
Битовая глубина : 8 бит
Тип развёртки : Прогрессивная
Метод сжатия : С потерями
Бит/(Пиксели*Кадры) : 0.256
Размер потока : 1,12 Гбайт (77%)
Библиотека кодирования : XviD 65

Аудио
Идентификатор : 1
Формат : AC-3
Формат/Информация : Audio Coding 3
Расширение режима : CM (complete main)
Параметр Endianness формата : Big
Идентификатор кодека : 2000
Продолжительность : 1 ч. 59 м.
Вид битрейта : Постоянный
Битрейт : 384 Кбит/сек
Каналы : 6 каналов
Расположение каналов : Front: L C R, Side: L R, LFE
Частота : 48,0 КГц
Битовая глубина : 16 бит
Метод сжатия : С потерями
Размер потока : 329 Мбайт (22%)
Выравнивание : Разделение по промежуткам
Продолжительность промежутка : 42 мс. (1,00 видеокадр)
Время предзагрузки промежутка : 500 мс.

[/ code]

Тех. данные
Качество: HDRip |BluRay
Продолжительность: 01:59:53 час.

Формат: AVI
Видео кодек: XviD
Аудио кодек: AС3
Видео: 720x304 (2.37:1), 24 fps, XviD MPEG-4 1343 kbps avg, 0.26 bit/pixel
Аудио: 48 kHz, Audio Coding 3 Dolby Digital, 3/2 (L,C,R,l,r) + LFE ch, 384 kbps


|Cтол заказов| Наши раздачи| Набор в группу| Сказать спасибо|


e130525756ad4ce95ba90d1afc429574b73a794aТихая война / The Silent War (Феликс Чонг, Сиу Фай Мак, Tриллер, драма, криминал, 2012) [HDRip, Любительский (двухголосый) [den904 и DeadSno]] Тихая война / The Silent War (Феликс Чонг, Сиу Фай Мак, Tриллер, драма, криминал, 2012) [HDRip, Любительский (двухголосый) [den904 и DeadSno]] " />

Аплоадер: Админ, дата: 31-12-2012, 12:20, торрент скачан: 359 раз

Понравилась раздача? Посмотрите эти:
  • Бойфренд из будущего / About Time (Ричард Кёртис, Фантастика, драма, комеди ...
  • Одноклассники 2 / Grown Ups 2 (Деннис Дуган, Комедия, 2013) [BDRip, Професс ...
  • Околофутбола (Антон Борматов, драма, криминал, 2013) [DVDRip, Не требуется] ...
  • Призрачный патруль / R.I.P.D. (Роберт Швентке, фэнтези, боевик, комедия, кр ...
  • Прошлое / Le passé (Асгар Фархади, Драма, детектив , 2013) [HDRip, Авторски ...
  • Кровью и потом: Анаболики / Pain & Gain (Майкл Бэй, криминал, комедия, трил ...
  • Миллион для чайников / The Brass Teapot (Рамаа Мосли, Фэнтези, триллер, ком ...
  • Даю год / I Give It a Year (Дэн Мазер, Мелодрама, комедия, 2013) [DVDRip, Д ...
  • Лифт в ад / Lift to Hell (Нин Ма, ужасы, 2013) [HDTVRip, Любительский (двух ...
  • Вот я какой/ Thats What I Am (Майкл Павоне, Драма, 2011) [HDRip, Профессион ...
  • Жил-был тигр / Ek Tha Tiger (Кабир Кхан, боевик, триллер , 2012) [ HDRip, ...
  • Легенда о МорДу / The Legend of MorDu (Брайан Ларсен, Короткометражный, ска ...
  • Кажется, я люблю свою жену / I Think I Love My Wife (Крис Рок, Драма, мелод ...
  • Бог любви / God of Love (Люк Мэзени, Короткометражка, фэнтези, комедия, мел ...
  • Взлом: По ту сторону мира / .hack//Sekai no mukou ni // Фильм 1 (из 1) (20 ...
  • Идеальный Голос / Pitch Perfect (Джейсон Мур, Комедия, музыка, 2012) [HDRip ...
  • Капитан Гром и Святой Грааль / El Capitán Trueno y el Santo Grial (Антонио ...
  • Боец из трущоб / Gutter King (Кейт Алан Моррис / Keith Alan Morris, боевик, ...
  • Кошмар / Nightmare / Qing Yan (Херман Яу, ужасы, триллер, 2012) [DVDRip, Лю ...
  • Нет мужчин - нет проблем / Without Men (Габриела Тальявини, Комедия, 2011) ...
  • Гениальный папа / Father of Invention (Трент Купер, Драма, комедия, 2010) [ ...
  • Глаз шторма / The Eye of the Storm (Фред Скеписи, Драма, 2011) [HDRip, Проф ...
  • Музыка внутри / Music Within (Стивен Савалич, Драма, мелодрама, комедия, во ...
  • Человек из банки (Иван Кульнев, Комедия, 2012) [DVDRip, Не требуется]
  • Сдохни, Джон Такер / John Tucker Must Die (Бетти Томас, мелодрама, комедия, ...
  • Информация
    Посетители, находящиеся в группе Гости, не могут оставлять комментарии к данной публикации.