вход на сайт

Имя пользователя :
Пароль :

Восстановление пароля Регистрация
Удан / Wu Dang (Патрик Лун, Боевик, 2012) [HDTVRip, Любительский (одноголосый)]
Рейтинг:
(голосов: 1)



[img]{THEME}/images/logopost.png[/img]



Удан / Wu Dang

Год выпуска: 2012
Страна: Китай
Производство: Mei Ah Entertainment Ltd.
Жанр: Боевик

Режиссёр: Патрик Лун
В ролях: Ман Чук Чиу, Ми Янг, Фан Сю-Вонг, Ю-Ханг То, Джиао Ксу, Хи Чинг Пав

Перевод: Любительский (одноголосый)
Язык субтитров: Китайский
Субтитры: Вшитые (неотключаемые)

Описание: Во времена становления Китайской Республики распространились слухи о том, что на горе Удан спрятано сокровище. Американский заговорщик задумал его похитить, и он со своей дочерью, хорошо владеющей кунг-фу, отправляется туда под видом спонсора турнира по даосским боевым искусствам. Неожиданно на турнире появляется ученик, представляющий Удан, желающий сразиться с мастерами за звание чемпиона. Во время соревнований между различными сторонами начинаются распри, и отношения усложняются. Тем временем кореянка, потомок мастеров Тай Цзы, влюбляется в американского заговорщика и раскрывает секрет спрятанного сокровища. Сокровище это основа магнитного поля горы Удан, и если его похитить, то она будет уничтожена. Чтобы защитить Удан, молодые герои объединяются, намереваясь победить великих мастеров. Пришло время восстановить давно утерянные боевые искусства Удана…

5.00 (87)
7.056 (18)



Качество: HDTVRip
Продолжительность: 01:39:18 час.

Формат: MKV
Видео кодек: H.264
Аудио кодек: AС3
Видео:704 x296 (2,40:1),24.000 fps, AVC MPEG-4 (H.264), [email protected], 1936 kbps avg, 0.387 bit/pixel
Аудио: 48 kHz, AC3 Dolby Digital, 2/0 (L,R) ch, 192 kbps

MediaInfo ▼Общее
Уникальный идентификатор : 191609172572202307647198931643599803337 (0x902695952EED181EBD8D385110F5D3C9)
Полное имя : D:Торрент раздачаUdan 2012 god HDTVRip.mkv
Формат : Matroska
Версия формата : Version 2
Размер файла : 1,46 Гбайт
Продолжительность : 1 ч. 39 м.
Общий поток : 2105 Кбит/сек
Дата кодирования : UTC 2012-09-18 11:38:58
Программа кодирования : mkvmerge v5.6.0 (Kenya Kane) built on Jun 29 2012 15:01:44
Библиотека кодирования : libebml v1.2.3 + libmatroska v1.3.0

Видео
Идентификатор : 1
Формат : AVC
Формат/Информация : Advanced Video Codec
Профиль формата : [email protected]
Параметр CABAC формата : Да
Параметр ReFrames формата : 8 кадров
Идентификатор кодека : V_MPEG4/ISO/AVC
Продолжительность : 1 ч. 39 м.
Битрейт : 1936 Кбит/сек
Ширина : 704 пикселя
Высота : 296 пикселей
Соотношение сторон : 2,40:1
Режим частоты кадров : Постоянный
Частота кадров : 24,000 кадра/сек
Цветовое пространство : YUV
Субдискретизация насыщенности : 4:2:0
Битовая глубина : 8 бит
Тип развёртки : Прогрессивная
Бит/(Пиксели*Кадры) : 0.387
Размер потока : 1,30 Гбайт (89%)
Библиотека кодирования : x264 core 125 r2200 999b753
Настройки программы : cabac=1 / ref=8 / deblock=1:0:0 / analyse=0x3:0x113 / me=hex / subme=7 / psy=1 / psy_rd=1.00:0.00 / mixed_ref=1 / me_range=16 / chroma_me=1 / trellis=1 / 8x8dct=1 / cqm=0 / deadzone=21,11 / fast_pskip=1 / chroma_qp_offset=-2 / threads=6 / lookahead_threads=1 / sliced_threads=0 / nr=0 / decimate=1 / interlaced=0 / bluray_compat=0 / constrained_intra=0 / bframes=4 / b_pyramid=2 / b_adapt=1 / b_bias=0 / direct=1 / weightb=1 / open_gop=0 / weightp=2 / keyint=250 / keyint_min=23 / scenecut=40 / intra_refresh=0 / rc_lookahead=40 / rc=abr / mbtree=1 / bitrate=1936 / ratetol=1.0 / qcomp=0.60 / qpmin=0 / qpmax=69 / qpstep=4 / ip_ratio=1.40 / aq=1:1.00
Default : Да
Forced : Нет

Аудио
Идентификатор : 2
Формат : AC-3
Формат/Информация : Audio Coding 3
Расширение режима : CM (complete main)
Параметр Endianness формата : Big
Идентификатор кодека : A_AC3
Продолжительность : 1 ч. 39 м.
Вид битрейта : Постоянный
Битрейт : 192 Кбит/сек
Каналы : 2 канала
Расположение каналов : Front: L R
Частота : 48,0 КГц
Битовая глубина : 16 бит
Метод сжатия : С потерями
Размер потока : 136 Мбайт (9%)
Default : Да
Forced : Нет





a57f4a2cc887ce72c4508df34b8eb2be1274e714Удан / Wu Dang (Патрик Лун, Боевик, 2012) [HDTVRip, Любительский (одноголосый)] Удан / Wu Dang (Патрик Лун, Боевик, 2012) [HDTVRip, Любительский (одноголосый)] " />

Аплоадер: Админ, дата: 22-09-2012, 23:53, торрент скачан: 359 раз

Понравилась раздача? Посмотрите эти:
  • [NG] Комета века / Comet of the century (документальный, 2013) [HDTVRip-AVC ...
  • Башня / The Tower (Чи-хун Ким, драма, 2012) [BDRip-AVC, Любительский (двухг ...
  • Обман Обамы / The Obama Deception: The Mask Comes Off (Документальный, 2009 ...
  • Кровью и потом: Анаболики / Pain & Gain (Майкл Бэй, криминал, комедия, трил ...
  • [NG] Война львов / Lion Battle Zone (документальный, 2011) [HDTVRip-AVC, Пр ...
  • Тачка №19 / Vehicle 19 (Мукунда Майкл Дьюил, триллер, боевик, 2013) [HDRip- ...
  • Дикий запад. Кино и реальность / The Wild And The West (документальный, 200 ...
  • Швы / Stitches (Конор МакМахон, триллер, ужасы, комедия, 2012) [HDRip-AVC, ...
  • Толстяк на ринге / Here Comes the Boom (Фрэнк Корачи, Боевик, комедия, 2012 ...
  • Суррогат / The Sessions (Бен Луин, Драма, 2012) [BDRip-AVC, Профессиональны ...
  • Побег / Flukt (Роар Утхауг, боевик, 2012) [DVDRip-AVC, Любительский (одного ...
  • Чемпионат Англии 2012-2013 / 25-й тур / Обзор / Суббота / BBC Sport [2013 г ...
  • Чемпионат Англии 2012-2013 / 25-й тур / Обзор / Воскресенье / BBC Sport [20 ...
  • Закон доблести / Act of Valor (Майк МакКой, Скотт Во, боевик, триллер, прик ...
  • Тонкий Лед / The Convincer (Джилл Шпрехер, Драма, комедия, криминал, 2011) ...
  • Лоракс: Серенада / The Lorax: Serenade (Кайл Балда, мультфильм, комедия, му ...
  • Морской бой / Battleship (Питер Берг, Фантастика, Боевик, Триллер, 2012) [B ...
  • Белоснежка и охотник [Расширенная версия] / Snow White and the Huntsman [UN ...
  • [NG] Мегазаводы: Видеоигра "FIFA 2012" / Megafactories: FIFA 2012 (Документ ...
  • Чемпионат Мира 2014 | Отборочный турнир | Европа | World Cup Qualifiers - H ...
  • Чемпионат Англии 2012-2013 / 19-й тур / Обзор / Среда / BBC Sport [2012 г., ...
  • Сейчас самое время / Now Is Good (Ол Паркер, Мелодрама, 2012) [BDRip-AVC, П ...
  • Кубок Англии 2012-2013 / 3-й раунд / Обзор / Суббота / ITV 1 HD [2013 г., ф ...
  • Удан / Wu Dang (Патрик Лун, Боевик, 2012) [HDTVRip, Любительский (одноголос ...
  • Итальянская Серия А 2012-13 / Тур 14 / Милан - Ювентус [футбол, 25.11.2012, ...
  • Информация
    Посетители, находящиеся в группе Гости, не могут оставлять комментарии к данной публикации.