вход на сайт

Имя пользователя :
Пароль :

Восстановление пароля Регистрация
Воспоминания об убийстве / Memories of Murder / Salinui chueok (Бон Чун Хо, триллер, драма, криминал, детектив, 2003) [BDRip-AVC, Профессиональный (двухголосый закадровый) + Original + Sub]
Рейтинг:
(голосов: 1)



[img]{THEME}/images/logopost.png[/img]



Воспоминания об убийстве / Memories of Murder / Salinui chueok

Год выпуска: 2003 г.
Страна: Корея Южная
Производство: CJ Entertainment, Sidus Pictures
Жанр: Триллер, драма, криминал, детектив

Режиссёр: Бон Чун Хо / Joon-ho Bong
В ролях: Сон Канхо, Ким Ким, Рой-ха Ким, Сон Чжэ Хо, Хи-бон Бьон, Сео-хи Ко, Но-сик Парк, Хае-ил Парк, Чон-рел Чои, Чжон Чон

Перевод: Профессиональный (двухголосый закадровый) [BBC Saint-Petersburg] + Оригинал
Субтитры: Русские

Описание:
В 1986 году, в корейской глубинке, две местных женщины были убиты одним и тем же извращённым способом. Детектив Ду Ман Пак и его помощник Ён Гу Чжу, доброволец, вызвавшийся помогать в расследовании этого ужасного дела, со всевозможным рвением пытаются распутать таинственные обстоятельства происшедшего.

Но скоро становится очевидно, что они не имеют ни навыков, ни характера для подобного рода оперативной работы. После неудачной попытки обвинить в совершении убийства невиновного человека, дело предаётся гласности и полицейские неохотно принимают помощь полицейского Тхэ Ён Со, который прибыл им на помощь из Сеула…





Качество: BDRip-AVC (Исходник: BDRemux)
Продолжительность: 01:43:01 час.

Формат: MKV
Видео кодек: H264
Аудио кодек: AC3
Видео: 1028x558 (16:9), 23.976 fps, Advanced Video Codec ([email protected]) ~3926 kbps avg, 0.285 bit/pixel
Аудио#1: 48 kHz, AC3 Dolby Digital, 3/2 (L,C,R,l,r) + LFE ch ~448.00 kbps avg
Аудио#2: 48 kHz, AC3 Dolby Digital, 3/2 (L,C,R,l,r) + LFE ch ~448.00 kbps avg

Дата премьеры (мир): 2 мая 2003

Media Info ▼
TextFormat : Matroska
Format version : Version 2
File size : 4.51 GiB
Duration : 2h 11mn
Overall bit rate : 4 920 Kbps
Movie name : Memories of Murder.2003.x264
Encoded date : UTC 2011-12-24 08:01:17
Writing application : mkvmerge v4.9.1 (Ich will) сборка от Jul 11 2011 23:53:15
Writing library : libebml v1.2.1 libmatroska v1.1.1

Video
ID : 1
Format : AVC
Format/Info : Advanced Video Codec
Format profile : [email protected]
Format settings, CABAC : Yes
Format settings, ReFrames : 13 frames
Format settings, GOP : M=8, N=27
Codec ID : V_MPEG4/ISO/AVC
Duration : 2h 11mn
Bit rate : 3 926 Kbps
Width : 1 028 pixels
Height : 558 pixels
Display aspect ratio : 16:9
Frame rate : 23.976 fps
Color space : YUV
Chroma subsampling : 4:2:0
Bit depth : 8 bits
Scan type : Progressive
Bits/(Pixel*Frame) : 0.285
Stream size : 3.60 GiB (80%)
Title : Memories of Murder.2003.x264
Writing library : x264 core 120 r2120kMod 0c7dab9
Encoding settings : cabac=1 / ref=13 / deblock=1:-3:-2 / analyse=0x3:0x113 / me=umh / subme=11 / psy=1 / fade_compensate=0.00 / psy_rd=1.00:0.00 / mixed_ref=1 / me_range=32 / chroma_me=1 / trellis=2 / 8x8dct=1 / cqm=0 / deadzone=21,11 / fast_pskip=1 / chroma_qp_offset=-2 / threads=6 / sliced_threads=0 / nr=0 / decimate=1 / interlaced=0 / bluray_compat=0 / constrained_intra=0 / bframes=13 / b_pyramid=2 / b_adapt=2 / b_bias=0 / direct=1 / weightb=1 / open_gop=0 / weightp=2 / keyint=250 / keyint_min=23 / scenecut=40 / intra_refresh=0 / rc_lookahead=40 / rc=crf / mbtree=0 / crf=18.0000 / qcomp=0.60 / qpmin=0 / qpmax=69 / qpstep=4 / vbv_maxrate=50000 / vbv_bufsize=62500 / crf_max=0.0 / nal_hrd=none / ip_ratio=1.40 / pb_ratio=1.30 / aq=1:0.80 / zones=185333,188649,q=35
Language : English
Color primaries : BT.709-5, BT.1361, IEC 61966-2-4, SMPTE RP177
Transfer characteristics : BT.709-5, BT.1361
Matrix coefficients : BT.709-5, BT.1361, IEC 61966-2-4 709, SMPTE RP177

Audio #1
ID : 2
Format : AC-3
Format/Info : Audio Coding 3
Mode extension : CM (complete main)
Codec ID : A_AC3
Duration : 2h 11mn
Bit rate mode : Constant
Bit rate : 448 Kbps
Channel(s) : 6 channels
Channel positions : Front: L C R, Side: L R, LFE
Sampling rate : 48.0 KHz
Bit depth : 16 bits
Compression mode : Lossy
Stream size : 420 MiB (9%)
Title : 48 kHz, AC3 Dolby Digital, 3/2 (L,C,R,l,r) LFE ch, ~448.00 kbps - (BBC Saint-Petersburg)
Language : Russian

Audio #2
ID
8d525e0b28338e978869a5ffc2e82f8213fb74d5Воспоминания об убийстве / Memories of Murder / Salinui chueok (Бон Чун Хо, триллер, драма, криминал, детектив, 2003) [BDRip-AVC, Профессиональный (двухголосый закадровый) + Original + Sub] Воспоминания об убийстве / Memories of Murder / Salinui chueok (Бон Чун Хо, триллер, драма, криминал, детектив, 2003) [BDRip-AVC, Профессиональный (двухголосый закадровый) + Original + Sub] " />

Аплоадер: Админ, дата: 12-03-2012, 22:35, торрент скачан: 359 раз

Понравилась раздача? Посмотрите эти:
  • Иллюзия обмана / Now You See Me [Theatrical Cut] (Луи Летерье / Louis Leter ...
  • Аноним / Anonymous (Роланд Эммерих, триллер, драма, 2011) [BDRip-AVC, Профе ...
  • Мартовские иды / The Ides of March (Джордж Клуни / George Clooney, драма, 2 ...
  • Все самое лучшее / All Good Things (Эндрю Джареки, триллер, драма, мелодрам ...
  • Шерлок Холмс: Игра теней / Sherlock Holmes: A Game of Shadows (Гай Ричи, бо ...
  • Убить короля / To Kill a King (Майк Баркер, Драма, исторический, 2003) [BDR ...
  • Кориолан / Coriolanus (Рэйф Файнс, триллер, драма, 2011) [BDRip-AVC, Дубли ...
  • На грани / Man on a Ledge (Асгер Лет, триллер, криминал, 2012) [BDRip-AVC, ...
  • Код доступа «Кейптаун» / Safe House (Дэниэл Эспиноза, боевик, триллер, крим ...
  • Проект X: Дорвались / Project X (Нима Нуризаде, комедия, 2012) [BDRip-AVC, ...
  • Похищенная / A Lonely Place to Die (Джулиан Джилби, триллер, криминал, прик ...
  • Соломенные псы / Straw Dogs (Род Лури, Драма, Триллер, Криминал, 2011) [BDR ...
  • Учитель на замену / Detachment (Тони Кэй, драма, 2011) [BDRip 720р, Професс ...
  • Откровения / Elles (Малгожата Шумовска, Драма, 2011) [BDRip 720p, Профессио ...
  • Футбольный клуб / Чемпионат Европы 2012 / НТВ+ [Футбол, 08.06.2012, HDTVRip ...
  • Чемпионат Европы 2012 / Группа C / 1-й тур / Ирландия — Хорватия / Спорт 1 ...
  • Английская Премьер-Лига 2012-13 / Тур 20 / Арсенал - Ньюкасл Юнайтед [футбо ...
  • Jon Anderson / The Contemporary Youth Orchestra [2010, Art-Rock, Contempora ...
  • Mylene Farmer / Du Temps [2011, Pop, HDTVRip]
  • Mylene Farmer / Bleu Noir [2011, Pop, HDTVRip]
  • Воспоминания об убийстве / Memories of Murder / Salinui chueok (Бон Чун Хо ...
  • Профессионал / Killer Elite (Гэри МакКендри, боевик, триллер, криминал, 201 ...
  • Шерлок Холмс: Игра теней / Sherlock Holmes: A Game of Shadows (Гай Ричи, Бо ...
  • The Dream Team - NBA TV Documentary [Баскетбол,13.06.2012, HDTVRip/720p, MP ...
  • Церемония открытия летних Олимпийских игр 2012 в Лондоне. НТВ + [27.08.2012 ...
  • Информация
    Посетители, находящиеся в группе Гости, не могут оставлять комментарии к данной публикации.