вход на сайт

Имя пользователя :
Пароль :

Восстановление пароля Регистрация
Честь дракона / Tom yum goong (Прачья Пинкаю, боевик, триллер, драма, криминал, 2005) [BDRip-AVC, Любительский (одноголосый, закадровый), Оригинал, cубтитры]
Рейтинг:
(голосов: 1)



[img]{THEME}/images/logopost.png[/img]



Честьдракона / Tom yum goong

Год выпуска: 2005
Страна: Таиланд
Производство: Baa-Ram-Ewe
Жанр: боевик, триллер, драма, криминал

Режиссёр: Прачья Пинкаю
В ролях: Тони Джа, Петчтай Вонгкамлао, Хин Джин, Натан Джонс, Джонни Нгуйен, Латиф Кроудер, Джон Фу, Дин Александру, Тони Чу, Дон Фергюсон, Энн Ху, Джон Ладальски, Джон Ламон мл., Рик Лос...

Перевод: Любительский (одноголосый, закадровый), Оригинал (Тайский)
Субтитры: русские и английские (только на тайскую речь, на английские фразы субтитров нет)

Описание: В основе сюжета лежит история о том, как у одной крестьянской семьи из Таиланда перекупщики похитили слона и слоненка, которые были затем нелегально переправлены в Сидней. Молодой парень отправляется в Австралию, где вступает в схватку с преступным синдикатом.Качество: BDRip-AVC (источник: Blu-Ray Remux / 1080p) | Сэмпл
Продолжительность: 01:50:33 час.

Формат: MKV
Видео кодек: x264
Аудио кодек: AC3
Видео: 1024x576 (16:9), 23.976 fps, x264, 2995 kbps, 0.212 bit/pixel
Аудио #1: 48 kHz, AC3 Dolby Digital, 3/2 (L,C,R,l,r) + LFE ch, 384.00 kbps avg (VO)
Аудио #2: 48 kHz, AC3 Dolby Digital, 3/2 (L,C,R,l,r) + LFE ch, 384.00 kbps avg(THA)

Дата премьеры (мир): 11 августа 2005
"MediaInfo" ▼Format : Matroska
Format version : Version 2
File size : 2.91 GiB
Duration : 1h 50mn
Overall bit rate mode : Variable
Overall bit rate : 3 764 Kbps
Encoded date : UTC 2010-05-18 14:09:15
Writing application : mkvmerge v3.2.0 (Beginnings) built on Feb 12 2010 16:46:17
Writing library : libebml v0.7.9 + libmatroska v0.8.1

Video
ID : 1
Format : AVC
Format/Info : Advanced Video Codec
Format profile : [email protected]
Format settings, CABAC : Yes
Format settings, ReFrames : 3 frames
Format settings, GOP : M=4, N=24
Codec ID : V_MPEG4/ISO/AVC
Duration : 1h 50mn
Bit rate mode : Variable
Bit rate : 2 995 Kbps
Maximum bit rate : 40.0 Mbps
Width : 1 024 pixels
Height : 576 pixels
Display aspect ratio : 16:9
Frame rate : 23.976 fps
Color space : YUV
Chroma subsampling : 4:2:0
Bit depth : 8 bits
Scan type : Progressive
Bits/(Pixel*Frame) : 0.212
Stream size : 2.26 GiB (78%)
Writing library : x264 core 80 r1376M 3feaec2
Encoding settings : cabac=1 / ref=4 / deblock=1:0:0 / analyse=0x3:0x113 / me=hex / subme=7 / psy=1 / psy_rd=1.0:0.0 / mixed_ref=1 / me_range=16 / chroma_me=1 / trellis=1 / 8x8dct=1 / cqm=0 / deadzone=21,11 / fast_pskip=1 / chroma_qp_offset=-2 / threads=3 / sliced_threads=0 / slices=4 / nr=0 / decimate=1 / mbaff=0 / constrained_intra=0 / bframes=3 / b_pyramid=1 / b_adapt=1 / b_bias=0 / direct=1 / wpredb=1 / wpredp=2 / keyint=24 / keyint_min=2 / scenecut=40 / rc_lookahead=24 / rc=2pass / mbtree=1 / bitrate=2995 / ratetol=1.0 / qcomp=0.60 / qpmin=10 / qpmax=51 / qpstep=4 / cplxblur=20.0 / qblur=0.5 / vbv_maxrate=40000 / vbv_bufsize=30000 / ip_ratio=1.40 / aq=1:1.00
Language : English
Default : No
Forced : No

Audio #1
ID : 2
Format : AC-3
Format/Info : Audio Coding 3
Mode extension : CM (complete main)
Format settings, Endianness : Big
Codec ID : A_AC3
Duration : 1h 50mn
Bit rate mode : Constant
Bit rate : 384 Kbps
Channel(s) : 6 channels
Channel positions : Front: L C R, Side: L R, LFE
Sampling rate : 48.0 KHz
Bit depth : 16 bits
Compression mode : Lossy
Stream size : 304 MiB (10%)
Title : Одноголосый закадровый
Language : Russian
Default : Yes
Forced : No

Audio #2
ID : 3
Format : AC-3
Format/Info : Audio Coding 3
Mode extension : CM (complete main)
Format settings, Endianness : Big
Codec ID : A_AC3
Duration : 1h 50mn
Bit rate mode : Constant
Bit rate : 384 Kbps
Channel(s) : 6 channels
Channel positions : Front: L C R, Side: L R, LFE
Sampling rate : 48.0 KHz
Bit depth : 16 bits
Compression mode : Lossy
Stream size : 304 MiB (10%)
Title : Оригинал
Language : Thai
Default : No
Forced : No

Text #1
ID : 4
Format : UTF-8
Codec ID : S_TEXT/UTF8
Codec ID/Info : UTF-8 Plain Text
Title : Русские
Language : Russian
Default : No
Forced : No

Text #2
ID : 5
Format : UTF-8
Codec ID : S_TEXT/UTF8
Codec ID/
2a8903005e9553f6cd81135bce3f90a9f716ccb1Честь дракона / Tom yum goong (Прачья Пинкаю, боевик, триллер, драма, криминал, 2005) [BDRip-AVC, Любительский (одноголосый, закадровый), Оригинал, cубтитры] Честь дракона / Tom yum goong (Прачья Пинкаю, боевик, триллер, драма, криминал, 2005) [BDRip-AVC, Любительский (одноголосый, закадровый), Оригинал, cубтитры] " />

Аплоадер: Админ, дата: 26-03-2013, 22:25, торрент скачан: 359 раз

Понравилась раздача? Посмотрите эти:
  • Два ствола / 2 Guns (Бальтасар Кормакур, боевик, триллер, драма, комедия, к ...
  • Честь дракона 2 / Tom yum goong 2 (Прачья Пинкаю, Боевик, 2013) [DVDRip, Лю ...
  • Сезон убийц / Killing Season (Марк Стивен Джонсон, триллер, драма, боевик, ...
  • Ледяной / The Iceman (Ариэль Вромен, драма, криминал, биография, 2013) [BDR ...
  • Кровью и потом: Анаболики / Pain & Gain (Майкл Бэй, криминал, комедия, трил ...
  • Добро пожаловать в капкан / Welcome to the Punch (Эрен Криви, боевик, трил ...
  • Честь дракона / Tom yum goong (Прачья Пинкаю, боевик, триллер, драма, крими ...
  • Водитель / The Driver (Уолтер Хилл, Боевик, триллер, драма, криминал, 1978) ...
  • Убить по расписанию / Ticking Clock (Эрни Барбараш, фантастика, боевик, три ...
  • Репортаж из преисподней / [REC] 2 (Жауме Балагуэро, Пако Пласа, ужасы, трил ...
  • Повторяющие / Repeaters (Карл Бессай, фантастика, боевик, триллер, драма, к ...
  • Центурион / Centurion (Нил Маршалл / Neil Marshall, Боевик, триллер, драма, ...
  • Патруль / End of Watch (Дэвид Эйр, Триллер, драма, криминал, 2012) [BDRip-A ...
  • Идеальный Голос / Pitch Perfect (Джейсон Мур, Комедия, музыка, 2012) [BDRip ...
  • Профессионал / Killer Elite (Гэри МакКендри, Боевик, Триллер, Криминал, 201 ...
  • Пираньи 3DD / Piranha 3DD (Джон Гулажер, ужасы, триллер, комедия, 2012) [BD ...
  • Mylene Farmer / Du Temps [2011, Pop, HDTVRip]
  • Честь дракона / Tom yum goong (Прачья Пинкаю, боевик, триллер, драма, крими ...
  • Честь дракона / Revenge of the Warrior (Прачья Пинкаю / Prachya Pinkaew, бо ...
  • Честь дракона / Tom yum goong / Revenge of the Warrior (Прачья Пинкаю, Боев ...
  • Информация
    Посетители, находящиеся в группе Гости, не могут оставлять комментарии к данной публикации.