вход на сайт

Имя пользователя :
Пароль :

Восстановление пароля Регистрация
Берлинское дело / The Berlin File (Рю Сын Ван, Боевик, триллер, драма, 2013) [HDTVRip, Любительский (одноголосый закадровый) + Sub]
Рейтинг:
(голосов: 1)



[img]{THEME}/images/logopost.png[/img]



Берлинское дело / The Berlin File
------



Год выпуска: 2013
Страна: Корея Южная
Производство: Film Base Berlin, Filmmaker R&K, Sun & Moon Pictures Intl
Жанр: Боевик, триллер, драма

Режиссер: Рю Сын Ван
В ролях: Ха Чон У, Хан Сок Кю, Рю Сын Бом, Джианна Юн, Паскуале Алеарди, Нуман Акар, Тайфун Бадемсой, Вернер Даен, Джон Кеог, Оскарс Лаува

Перевод: Любительский (одноголосый закадровый)
Озвучка: [den904]
Субтитры: Присутствуют вшитые корейские субтитры

Описание: События развиваются в Берлине, в Германии. Северокорейский агент, который проникает в южнокорейскую организацию, но затем оказывается брошенным своей страной. Чтобы устранить северокорейского агента посылают киллера. Он вместе со своей женой пытается бежать…


Премьера (мир): 31 января 2013

МедиаИнфо ▼Text
D:The.Berlin.File.2013.HDTVRip.avi
General
Complete name : D:The.Berlin.File.2013.HDTVRip.avi
Format : AVI
Format/Info : Audio Video Interleave
File size : 1.45 GiB
Duration : 2h 0mn
Overall bit rate : 1 721 Kbps
Movie name : The.Berlin.File.2013.HDTVRip
Director : Odessit
Writing application : VirtualDubMod 1.5.10.3 (build 2550/release)
Writing library : VirtualDubMod build 2550/release
Video #0
ID : 0
Format : MPEG-4 Visual
Format profile : Advanced [email protected]
Format settings, BVOP : Yes
Format settings, QPel : No
Format settings, GMC : No warppoints
Format settings, Matrix : Custom
Codec ID : XVID
Codec ID/Hint : XviD
Duration : 2h 0mn
Bit rate : 1 519 Kbps
Width : 720 pixels
Height : 384 pixels
Display aspect ratio : 1.875
Frame rate : 23.976 fps
Color space : YUV
Chroma subsampling : 4:2:0
Bit depth : 8 bits
Scan type : Progressive
Compression mode : Lossy
Bits/(Pixel*Frame) : 0.229
Stream size : 1.28 GiB (88%)
Writing library : XviD 65
Audio #1
ID : 1
Format : MPEG Audio
Format version : Version 1
Format profile : Layer 3
Mode : Joint stereo
Codec ID : 55
Codec ID/Hint : MP3
Duration : 2h 0mn
Bit rate mode : Constant
Bit rate : 192 Kbps
Channel(s) : 2 channels
Sampling rate : 48.0 KHz
Compression mode : Lossy
Stream size : 166 MiB (11%)
Alignment : Aligned on interleaves
Interleave, duration : 42 ms (1.00 video frame)
Interleave, preload duration : 504 ms

Качество: HDTVRip
Продолжительность: 02:00:39

Формат: AVI
Видео кодек: XviD
Аудио кодек: MP3
Видео: 720x384 (1.875), 23.976 fps, XviD build 65 ~1519 kbps avg, 0.23 bit/pixel
Аудио: 48 kHz, MPEG Layer 3, 2 ch, ~192.00 kbps avg





335ef1dc7a9885aefab22bb1cf95af23f2c4c29bБерлинское дело / The Berlin File (Рю Сын Ван, Боевик, триллер, драма, 2013) [HDTVRip, Любительский (одноголосый закадровый) + Sub] Берлинское дело / The Berlin File (Рю Сын Ван, Боевик, триллер, драма, 2013) [HDTVRip, Любительский (одноголосый закадровый) + Sub] " />

Аплоадер: Админ, дата: 22-07-2013, 20:41, торрент скачан: 359 раз

Понравилась раздача? Посмотрите эти:
  • Погнали! / Getaway (Кортни Соломон, Боевик,Криминал, 2013) [HDRip, Професси ...
  • Вирус / Flu (Ким Сон Су, Драма, 2013) [HDTVRip, Любительский (двухголосый з ...
  • Орудие смерти / A-i-deul... (Ли Гю Ман, Триллер, криминал, 2011) [DVDRip, П ...
  • Мужество / Wymyk (Грег Зглински, драма, 2011) [DVDRip, Любительский (одного ...
  • 23:59 / 23:59 (Гилберт Чан, Ужасы, 2011) [HDRip, Любительский (одноголосый ...
  • Чемпионат Германии 2012-2013 / 32-й тур / Обзор матчей / Футбол + (UA) [06. ...
  • Чемпионат Италии 2012-13 / 36-й тур / Рома — Кьево / НТВ+ [07.05.2013, SD, ...
  • Цель Номер Один / Zero Dark Thirty (Кэтрин Бигелоу, боевик, триллер, драма, ...
  • Псы войны / The Dogs of War (Джон Ирвин, боевик, драма, приключения, военны ...
  • Новые парни турбо / New Kids Turbo (Штефен Хаарс, Боевик, комедия, 2010) [H ...
  • Чемпионат Англии 2011-12 / 36 тур / Челси - Куинз Парк Рейнджерс / Спорт 1 ...
  • Чемпионат Европы 2012 / Группа C / 1-й тур / Ирландия — Хорватия / ТРК Футб ...
  • Чемпионат Европы 2012 / Группа D / 1-й тур / Украина - Швеция / Спорт 1 [11 ...
  • Неделя в NBA с В.Гомельским / НТВ+ [28.06.2011, SD, XviD, RU, SAT]
  • Неприкасаемые / Intouchables (Оливье Накаш, Эрик Толедано, Драма, 2011) [BD ...
  • Чемпионат Европы 2012 / Группа B / 1-й тур / Германия - Португалия / Спорт ...
  • Олимпиада 2012 / Женщины, Мужчины / Плавание / Квалификация / НТВ+ [30.07.2 ...
  • Ничего, кроме правды / Nothing But the Truth (Род Лури, триллер, драма, 200 ...
  • Рука-убийца / Idle Hands (Родмен Флендер,ужасы, триллер, комедия, 1999) [HD ...
  • Крузо / Crusoe (Калеб Дешанель, Драма, 1988) [HDTVRip, Профессиональный (дв ...
  • Информация
    Посетители, находящиеся в группе Гости, не могут оставлять комментарии к данной публикации.