вход на сайт

Имя пользователя :
Пароль :

Восстановление пароля Регистрация
Башня / The Tower (Чи-хун Ким, драма, 2012) [BDRip-AVC, Любительский (двухголосый, закадровый), Оригинал (корейский), Sub [Rus]]
Рейтинг:
(голосов: 1)



[img]{THEME}/images/logopost.png[/img]



«Башня / The Tower»

¤Tower Sky. 108 Stories. Survive at any cost.¤

_____________________________________________________________________________________
¤Информация о фильме¤
Год выпуска: 2012
Страна: Южная Корея
Производство: CJ Entertainment
Жанр: драма

Режиссёр: Чи-хун Ким / Ji-hoon Kim
В ролях: Мина Чо, Ким Сан Ген, Соль Гён Гу, Сон Ё Чжин

Перевод: Любительский (двухголосый, закадровый), Оригинал (корейский)
Озвучка: DeadSno & den904
Субтитры: Sub [Rus] (вшитые, отключаемые)
_____________________________________________________________________________________

Описание
¤ ¤ ¤
- ...В канун Рождества ужасный пожар охватывает 120-этажное здание башен-близнецов в центре Сеула... -
¤ ¤ ¤


_____________________________________________________________________________________

¤Тех.Данные¤
Качество: BDRip-AVC
Продолжительность: ~ 01:01:59 часа

Формат: Matroska-MKV-
Видео кодек: AVC [email protected]
Аудио кодек: Audio Coding 3
Видео: 1024x434 (2.35:1), 23,976 fps, AVC ~1870 kbps avg, 0.175 bit/pixel
Аудио: 48 kHz, AC3 Dolby Digital, 2/0 (L,R) ch, ~192 kbps Русский
Аудио: 48 kHz, AC-3, 3/2 (L,C,R,l,r) + L,F,E ch, ~448 kbps Корейский

Информация MediaInfo ▼TextОбщее
Уникальный идентификатор : 240528336578776143107315112011658783762 (0xB4F412953288DCEC9BBBD03AA98D6C12)
Полное имя : E:DownloadsБашня.2012BDRip-AVC.mkv
Формат : Matroska
Версия формата : Version 2
Размер файла : 2,14 Гбайт
Продолжительность : 2 ч. 1 м.
Общий поток : 2510 Кбит/сек
Дата кодирования : UTC 2013-06-05 18:19:11
Программа кодирования : mkvmerge v4.2.0 (No Talking) сборка от Jul 28 2010 18:38:23
Библиотека кодирования : libebml v1.0.0 + libmatroska v1.0.0

Видео
Идентификатор : 1
Формат : AVC
Формат/Информация : Advanced Video Codec
Профиль формата : [email protected]
Параметр CABAC формата : Да
Параметр ReFrames формата : 8 кадров
Идентификатор кодека : V_MPEG4/ISO/AVC
Продолжительность : 2 ч. 1 м.
Битрейт : 1870 Кбит/сек
Ширина : 1024 пикселя
Высота : 434 пикселя
Соотношение сторон : 2,35:1
Частота кадров : 23,976 кадра/сек
Цветовое пространство : YUV
Субдискретизация насыщенности : 4:2:0
Битовая глубина : 8 бит
Тип развёртки : Прогрессивная
Бит/(Пиксели*Кадры) : 0.175
Размер потока : 1,55 Гбайт (73%)
Библиотека кодирования : x264 core 130 r2273 b3065e6
Настройки программы : cabac=1 / ref=8 / deblock=1:-2:-2 / analyse=0x3:0x113 / me=umh / subme=11 / psy=1 / psy_rd=1.00:0.00 / mixed_ref=1 / me_range=48 / chroma_me=1 / trellis=2 / 8x8dct=1 / cqm=0 / deadzone=21,11 / fast_pskip=0 / chroma_qp_offset=1 / threads=6 / lookahead_threads=1 / sliced_threads=0 / nr=0 / decimate=0 / interlaced=0 / bluray_compat=0 / constrained_intra=0 / bframes=8 / b_pyramid=2 / b_adapt=2 / b_bias=0 / direct=3 / weightb=1 / open_gop=0 / weightp=2 / keyint=240 / keyint_min=23 / scenecut=40 / intra_refresh=0 / rc_lookahead=40 / rc=2pass / mbtree=0 / bitrate=1870 / ratetol=1.0 / qcomp=0.60 / qpmin=0 / qpmax=69 / qpstep=4 / cplxblur=20.0 / qblur=0.5 / vbv_maxrate=50000 / vbv_bufsize=52500 / nal_hrd=none / ip_ratio=1.40 / pb_ratio=1.30 / aq=1:0.80
Язык : English
Default : Да
Forced : Нет

Аудио #1
Идентификатор : 2
Формат : AC-3
Формат/Информация : Audio Coding 3
Расширение режима : CM (complete main)
Идентификатор кодека : A_AC3
Продолжительность : 2 ч. 1 м.
Вид битрейта : Постоянный
Битрейт : 192 Кбит/сек
Каналы : 2 канала
Расположение каналов : Front: L R
Частота : 48,0 КГц
Битовая глубина : 16 бит
Метод сжатия : С потерями
Размер потока : 168 Мбайт (8%)
Язык : Russian
Default : Да
Forced : Нет

_____________________________________________________________________________________


cd28ccec74a8e4af41af1c296878d08d19825e4aБашня / The Tower (Чи-хун Ким, драма, 2012) [BDRip-AVC, Любительский (двухголосый, закадровый), Оригинал (корейский), Sub [Rus]] Башня / The Tower (Чи-хун Ким, драма, 2012) [BDRip-AVC, Любительский (двухголосый, закадровый), Оригинал (корейский), Sub [Rus]] " />

Аплоадер: Админ, дата: 7-06-2013, 15:00, торрент скачан: 359 раз

Понравилась раздача? Посмотрите эти:
  • Фрилансеры / Freelancers (Джесси Терреро, боевик, драма, криминал, детектив ...
  • Погнали! / Getaway (Кортни Соломон, боевик, криминал, 2013) [BDRip 1080p, П ...
  • Тело / El cuerpo (Ориол Паоло, триллер, 2012) [BDRip-AVC, Авторский (одного ...
  • Погнали! / Getaway (Кортни Соломон, боевик, криминал, 2013) [BDRip-AVC, Про ...
  • 11.6 / 11.6 (Филипп Годо, Драма, триллер, криминал, 2013) [BDRip-AVC, Профе ...
  • Мальчишник: Часть III / The Hangover Part III (Тодд Филлипс, комедия, 2013) ...
  • Филадельфия / Philadelphia (Джонатан Демме, Драма, 1993) [BDRip-AVC, Профес ...
  • Больше чем мёд / More Than Honey (документальный, 2012) [BDRip 720p, Профес ...
  • Обман Обамы / The Obama Deception: The Mask Comes Off (Документальный, 2009 ...
  • Голливудский мусор / Garbage (Филипп Волкен, драма, комедия, 2013) [HDTVRip ...
  • Рикошет / Ricochet (Ник Гомез, драма, детектив, 2011) [BDRip-AVC, Профессио ...
  • Башня / The Tower (Чи-хун Ким, Драма, 2012) [HDRip, Любительский (двухголос ...
  • Даю год / I Give It a Year (Дэн Мазер, мелодрама, комедия, 2012) [BDRip-AVC ...
  • АББА: фильм / ABBA: The Movie (документальный, драма, музыка, 1977) [BDRip- ...
  • Тачка №19 / Vehicle 19 (Мукунда Майкл Дьюил, триллер, боевик, 2013) [HDRip- ...
  • Дикий запад. Кино и реальность / The Wild And The West (документальный, 200 ...
  • Крученый мяч / Trouble with the Curve (Роберт Лоренц, Драма, 2012) [BDRip-A ...
  • Толстяк на ринге / Here Comes the Boom (Фрэнк Корачи, Боевик, комедия, 2012 ...
  • Суррогат / The Sessions (Бен Луин, Драма, 2012) [BDRip-AVC, Профессиональны ...
  • Чемпионат Англии 2012-2013 / 25-й тур / Обзор / Суббота / BBC Sport [2013 г ...
  • Свадебный разгром / A Few Best Men (Стефан Эллиотт, комедия, 2011) [BDRip-A ...
  • Образец 47 / Marvel One-Shot: Item 47 (Луис Д’Эспозито, короткометражка, фа ...
  • Эд Вуд / Ed Wood (Тим Бёртон, драма, комедия, биография, 1994) [BDRip-AVC, ...
  • Лоракс: Серенада / The Lorax: Serenade (Кайл Балда, мультфильм, комедия, му ...
  • Преследование / Слежка / Following (Кристофер Нолан, триллер, драма, кримин ...
  • Информация
    Посетители, находящиеся в группе Гости, не могут оставлять комментарии к данной публикации.