вход на сайт

Имя пользователя :
Пароль :

Восстановление пароля Регистрация
Мужчина: Инструкция по применению / Mens Manual (Ли Вон Сок, Комедия, 2013) [DVDRip-AVC, Любительский (одноголосый закадровый) (2 варианта), Sub [Kor]]
Рейтинг:
(голосов: 1)



[img]{THEME}/images/logopost.png[/img]



«Мужчина: Инструкция по применению / Mens Manual»

¤Информация о фильме¤
Год выпуска: 2013
Страна: Корея Южная
Производство: Daisy Entertainment
Жанр: Комедия

Режиссёр: Ли Вон Сок
В ролях: Ли Си Ён (Чхве Бо На), О Чжон Се (Ли Сын Чжэ), Пак Ён Гю (доктор Сувальский), Ким Чжон Тхэ (У Сон Чхоль), Ли Вон Чжон (Рюк Бон А), Ким Чжун Сон (О Чжи Хун), Пэ Сон У (президент Чжин), Ким Мин Чжэ (помощник Чжо Сын Хван), Кён Су Чжин (Ким Ми Ра)

Перевод: Любительский (одноголосый закадровый) (2 варианта)
Озвучка: mi24
Субтитры: Корейские (вшитые, отключаемые)


Описание
¤ ¤ ¤
Чхве Бо На, помощницу режиссера рекламных роликов, заваливают всевозможными заданиями. Поскольку работа занимает буквально все ее время, до внешности руки не доходят. Бо На сто лет не ходила на свидания.
Однажды, прогуливаясь после завершения тяжелых съемок, Бо На наталкивается на необычный лоток, в котором продают инструктивные записи. Там ей в руки попадает набор кассет, обучающий как манипулировать мужчинами убедительными способами. Эти кассеты скоро изменят жизнь Бо На навсегда.
¤ ¤ ¤
¤Тех.Данные¤
Качество: DVDRip-AVC
Продолжительность: ~ 01:54:13 час.

Формат: MKV
Видео кодек: MPEG-4 Visual
Аудио кодек: Audio Coding 3
Видео: 800x336 (2,40:1), 23,976 fps, MPEG-4 Visual ~1263 kbps avg, 0.196 bit/pix
Аудио: 48 kHz, AC3 Dolby Digital, 2/0 (L,R) ch, ~320 kbps
Аудио: 48 kHz, AC3, 3/2 (L,C,R,l,r) + L,F,E ch, ~448 kbps

▼TextОбщее
Уникальный идентификатор : 189861743301629204788545244258441133475 (0x8ED60AAB0113583B95C0613B68847DA3)
Полное имя : E:DownloadsМужчина. Инструкция по применению.2013.DVDRip-AVC.mkv
Формат : Matroska
Версия формата : Version 2
Размер файла : 1,66 Гбайт
Продолжительность : 1 ч. 54 м.
Общий поток : 2073 Кбит/сек
Дата кодирования : UTC 2013-09-22 17:56:39
Программа кодирования : mkvmerge v5.8.0 (No Sleep / Pillow) built on Sep 2 2012 15:37:04
Библиотека кодирования : libebml v1.2.3 + libmatroska v1.3.0

Видео
Идентификатор : 1
Формат : MPEG-4 Visual
Профиль формата : Advanced [email protected]
Параметр BVOP формата : Да
Параметр QPel формата : Нет
Параметр GMC формата : Без точки перехода
Параметр матрицы формата : Default (H.263)
Идентификатор кодека : XVID
Идентификатор кодека/Подсказка : XviD
Продолжительность : 1 ч. 54 м.
Битрейт : 1263 Кбит/сек
Ширина : 800 пикселей
Высота : 336 пикселей
Соотношение сторон : 2,40:1
Частота кадров : 23,976 кадра/сек
Цветовое пространство : YUV
Субдискретизация насыщенности : 4:2:0
Битовая глубина : 8 бит
Тип развёртки : Прогрессивная
Метод сжатия : С потерями
Бит/(Пиксели*Кадры) : 0.196
Размер потока : 1,01 Гбайт (61%)
Библиотека кодирования : XviD 1.1.2 (UTC 2006-11-01)
Default : Да
Forced : Нет

Аудио #1
Идентификатор : 2
Формат : AC-3
Формат/Информация : Audio Coding 3
Расширение режима : CM (complete main)
Идентификатор кодека : A_AC3
Продолжительность : 1 ч. 54 м.
Вид битрейта : Постоянный
Битрейт : 320 Кбит/сек
Каналы : 2 канала
Расположение каналов : Front: L R
Частота : 48,0 КГц
Битовая глубина : 16 бит
Метод сжатия : С потерями
Размер потока : 262 Мбайт (15%)
Default : Да
Forced : Нет

Аудио #2
Идентификатор : 3
Формат : AC-3
Формат/Информация : Audio Coding 3
Расширение режима : CM (complete main)
Идентификатор кодека : A_AC3
Продолжительность : 1 ч. 54 м.
Вид битрейта : Постоянный
Битрейт : 448 Кбит/сек
Каналы : 6 каналов
Расположение каналов : Front: L C R, Side: L R, LFE
Частота : 48,0 КГц
Битовая глубина : 16 бит
Метод сжатия : С потерями
Размер потока : 367 Мбайт (22%)
Default : Нет
Forced : Нет

Текст
Идентификатор : 4
Формат : UTF-8
Идентификатор кодека : S_TEXT/UTF8
Идентификатор кодека/Информация : UTF-8 Plain Text
Default : Да
Forced : Нет

_____________________________________________________________________________________


37a3eea8b62f90756f4f07e032bbc10838c00bf1Мужчина: Инструкция по применению / Mens Manual (Ли Вон Сок, Комедия, 2013) [DVDRip-AVC, Любительский (одноголосый закадровый) (2 варианта), Sub [Kor]] Мужчина: Инструкция по применению / Mens Manual (Ли Вон Сок, Комедия, 2013) [DVDRip-AVC, Любительский (одноголосый закадровый) (2 варианта), Sub [Kor]] " />

Аплоадер: Админ, дата: 23-09-2013, 00:01, торрент скачан: 359 раз

Понравилась раздача? Посмотрите эти:
  • Бойфренд из будущего / About Time (Ричард Кёртис, Фантастика, драма, комеди ...
  • Va-банк / Runner Runner (Брэд Фурман, триллер, драма, криминал, 2013) [BDRe ...
  • Одноклассники 2 / Grown Ups 2 (Деннис Дуган, Комедия, 2013) [BDRip, Професс ...
  • Копы в юбках / The Heat [UNRATED] (Пол Фиг, комедия, криминал, боевик, дете ...
  • G.I. Joe: Бросок кобры 2 [Театральная версия] / G.I. Joe: Retaliation [Thea ...
  • Лего: Звёздные войны - Награда бомбада / LEGO: Star wars - Вombad Bounty (П ...
  • Эскадрилья "Лафайет" / Flyboys (Тони Билл, Боевик, драма, мелодрама, приклю ...
  • Думай, как мужчина / Think Like a Man (Тим Стори, Мелодрама, комедия, 2012) ...
  • Прототип / Archetype (Аарон Симс, Короткометражка, боевик, фантастика, 2011 ...
  • Жил-был тигр / Ek Tha Tiger (Кабир Кхан, боевик, триллер , 2012) [ HDRip, ...
  • Сид, инструкция по выживанию / Surviving Sid (Гален Т. Чу / Galen T. Chu, К ...
  • Другой мир: Пробуждение / Underworld: Awakening (Манс Марлинд, Бьёрн Стейн, ...
  • Диктатор / The Dictator (Ларри Чарльз, Комедия, 2012) [BD-Remux 1080p, Дубл ...
  • Счастливчик / The Lucky One (Скотт Хикс, Драма, мелодрама, 2012) [BD-Remux ...
  • Сид, инструкция по выживанию / Surviving Sid (Гален Т. Чу, Карен Дишер, мул ...
  • Супер Майк / Magic Mike (Стивен Содерберг, Драма, комедия, 2012) [BD-Remux ...
  • Halo 4: Идущий к рассвету / Halo 4: Forward Unto Dawn // Сезон 1, эпизод 1 ...
  • Преследование / Слежка / Following (Кристофер Нолан, триллер, драма, кримин ...
  • Кажется, я люблю свою жену / I Think I Love My Wife (Крис Рок, Драма, мелод ...
  • Идеальный Голос / Pitch Perfect (Джейсон Мур, Комедия, музыка, 2012) [HDRip ...
  • Pitbull / Bon Bon [2010, Pop, HDRip]
  • Schiller / Mitternacht [2010, Ambient, WebRip]
  • Музыка внутри / Music Within (Стивен Савалич, Драма, мелодрама, комедия, во ...
  • Человек из банки (Иван Кульнев, Комедия, 2012) [DVDRip, Не требуется]
  • Сдохни, Джон Такер / John Tucker Must Die (Бетти Томас, мелодрама, комедия, ...
  • Информация
    Посетители, находящиеся в группе Гости, не могут оставлять комментарии к данной публикации.