вход на сайт

Имя пользователя :
Пароль :

Восстановление пароля Регистрация
Черное солнце: Бойня в Нанкине / Hei tai yang Nan Jing da tu sha (Тун Фей Моу, драма, военный, история, 1995) [DVDRip, Любительский (одноголосый, закадровый)]
Рейтинг:
(голосов: 1)



[img]{THEME}/images/logopost.png[/img]



Черное солнце: Бойня в Нанкине / Hei tai yang Nan Jing da tu sha

Год выпуска: 1995
Страна: Гонконг
Производство: T.F. Film Company
Жанр: драма, военный, история

Режиссёр: Тун Фей Моу
В ролях: Лианг Чжан, Юнг Пан, Shao-tien Hsiung, Wen-ting Chiang, Wen-tu Pan, Хуа Шао, Vincent Benziger, Hsi-ho Chang, Chiu-liang Chen,
Liangyue Chen

Перевод: Любительский (одноголосый, закадровый)
Субтитры: Отсутствуют

Описание:
Во время Второй мировой войны, когда японцы захватили Китай, оккупационные войска в городе Нанкин начали систематически истреблять его жителей. Всего ими было убито более 300 тысяч мужчин, женщин и детей.


Дополнительно:
MediaInfo ▼Text
Общее
Полное имя :L:РАЗДАЧАБойня в НанкинеБойня в Нанкине.avi
Формат :AVI
Размер :692 MiB
Продолжительность :01:30:41.240
Общий поток :1 066 Kbps
Программа кодирования :Nandub v1.0rc2
Библиотека кодирования :Nandub build 1852/release

Видео
Идентификатор :0
Формат :MPEG-4 Visual
Профиль формата :Advanced [email protected]
Параметр BVOP формата :2
Параметр Qpel формата :No
Параметр GMC формата :0
Параметр Matrix формата :Default (H.263)
Идентификатор кодека :XVID
Продолжительность :1h 30mn 41s 240ms
Битрейт :955 Kbps
Ширина :544 pixels
Высота :400 pixels
Соотношение сторон :1.360
Частота кадров :25.000 fps
Глубина цвета :8 bits
Подвыборка цветности :4:2:0
Цветовое пространство :YUV
Тип развертки :Progressive
Бит/(Пиксели*Кадры) :0.176
Размер потока :620 MiB (90%)
Библиотека кодирования :XviD0047

Аудио #1
Идентификатор :1
Формат :MPEG Audio
Идентификатор кодека :55
Продолжительность :01:30:41.228
Вид битрейта :Variable
Битрейт :100.0 Kbps
Канал(ы) :2 channels
Частота :44.1 KHz
Метод сжатия :Lossy
Размер потока :63.9 MiB (9%)Тех. данные:
Качество:DVDRip
Продолжительность:01:30:40 час

Формат: AVI
Видео кодек: XviD
Аудио кодек: MPA1L3
Видео: 544 x 400 (4:3), 25.
5f9d4a0464ecfb29983c6aebd3099f4f208438ceЧерное солнце: Бойня в Нанкине / Hei tai yang Nan Jing da tu sha (Тун Фей Моу, драма, военный, история, 1995) [DVDRip, Любительский (одноголосый, закадровый)] Черное солнце: Бойня в Нанкине / Hei tai yang Nan Jing da tu sha (Тун Фей Моу, драма, военный, история, 1995) [DVDRip, Любительский (одноголосый, закадровый)] " />

Аплоадер: Админ, дата: 27-05-2012, 04:28, торрент скачан: 359 раз

Понравилась раздача? Посмотрите эти:
  • Марш на Дрину / Mars na Drinu (Живорад «Жика» Митрович, боевик, драма, воен ...
  • Пленники болот / Lure of the Wilderness (Жан Негулеско, драма, мелодрама, п ...
  • Тайная полиция Италии / Italian Secret Service (Луиджи Коменчини, комедия, ...
  • Спасти генерала Яна / Saving General Yang (Ронни Ю, Боевик, триллер, 2013) ...
  • Спасти генерала Яна / Saving General Yang (Ронни Ю, Боевик, триллер, 2013) ...
  • Одинокая женщина / Kobieta samotna (Агнешка Холланд, драма, 1981) [DVDRip, ...
  • Зверь / Зверь войны / The Beast of War (Кевин Рейнольдс, Драма, военный, ис ...
  • Вчерашний враг / Yesterdays Enemy (Вэл Гест, драма, военный, 1959) [DVDRip, ...
  • Оптимистическая трагедия (Самсон Самсонов, драма, военный, история, 1963) [ ...
  • Командир / Der Commander (Антонио Маргерити, боевик, военный, 1988) [DVDRip ...
  • Андерграунд / Underground (Эмир Кустурица, драма, комедия, военный, 1995) [ ...
  • Партизанская эскадрилья / Partizanska eskadrila (Хайрудин Крвавац, драма, в ...
  • След кота (Уильям А. Уэллмен, драма, вестерн, 1954) [DVDRip, Любительский ( ...
  • Пуск торпеды / Torpedo Run (Джозеф Пивни, драма, военный, 1958) [DVDRip, Ав ...
  • Ад для героев / Hell Is for Heroes (Дон Сигел, боевик, драма, военный, 1962 ...
  • Лиловая равнина / The Purple Plain (Роберт Пэрриш, боевик, драма, приключен ...
  • Бог знает, мистер Аллисон / Heaven Knows, Mr. Allison (Джон Хьюстон, боевик ...
  • Первый из немногих / История истребителя Спитфайера / The First of the Few ...
  • Нет мира под оливами / Non ce pace tra gli ulivi (Джузеппе де Сантис, драма ...
  • Урок любви / En lektion i karlek (Ингмар Бергман, драма, комедия, 1954) [DV ...
  • Ростовщик / The Pawnbroker (Сидни Люмет, драма, 1964) [DVDRip, Любительский ...
  • Римлянка / La romana (Луиджи Дзампа, драма, 1954) [DVDRip, Любительский (од ...
  • Четыре дня Неаполя / Le quattro giornate di Napoli (Нанни Лой, драма, военн ...
  • Эмбрион охотится тайно / Taiji ga mitsuryo suru toki (Кодзи Вакамацу, драма ...
  • Медведи и я / The Bears and I (Бернард МакЭвети, драма, семейный, 1974) [DV ...
  • Информация
    Посетители, находящиеся в группе Гости, не могут оставлять комментарии к данной публикации.