вход на сайт

Имя пользователя :
Пароль :

Восстановление пароля Регистрация
Индиана Джонс и последний крестовый поход / Indiana Jones and the Last Crusade (Стивен Спилберг, боевик, приключения, 1989) [HDRip, Профессиональный (многоголосый, закадровый)]
Рейтинг:
(голосов: 1)



[img]{THEME}/images/logopost.png[/img]



•Индиана Джонс и последний крестовый поход / Indiana Jones and the Last Crusade •
♥ Год выпуска: 1989
♥ Страна: США
♥ Производство: Paramount Pictures
♥ Жанр: боевик, приключения

♥ Режиссёр: Стивен Спилберг
♥ В ролях: Харрисон Форд, Шон Коннери, Денхолм Эллиот, Элисон Дуди, Джон Рис-Дэвис, Джулиан Гловер, Ривер Феникс, Майкл Бирн, Кеворк Маликян, Роберт Эддисон

♥ Перевод: Профессиональный (многоголосый, закадровый)
♥ Субтитры: нет

♥ Описание: Третья часть невероятных похождений прославленного археолога и искателя приключений Индианы Джонса. На этот раз бесстрашный Индиана разыскивает самую таинственную реликвию в истории человечества — Святой Грааль. В этом археологу помогает его отец — профессор Джонс старший.

Теперь под бдительным оком своего отца и при помощи своих верных талисманов, неизменной шляпы и хлыста, Индиане предстоит совершить много благородных подвигов и потрясающих открытий. В новых странствиях храброму археологу доведется добыть чашу, которую держал в руках Иисус Христос и получить автограф… самого Адольфа Гитлера.


MediaInfo ▼
Text
General
Complete name : C:Indiana.Jones.and.the.Last.Crusade_1989_HDRip.avi
Format : AVI
Format/Info : Audio Video Interleave
File size : 782 MiB
Duration : 2h 6mn
Overall bit rate : 862 Kbps
Writing application : VirtualDubMod 1.5.10.2 (build 2540/release)
Writing library : VirtualDubMod build 2540/release
Video #0
ID : 0
Format : MPEG-4 Visual
Format profile : Advanced [email protected]
Format settings, BVOP : 1
Format settings, QPel : No
Format settings, GMC : No warppoints
Format settings, Matrix : Custom
Codec ID : XVID
Codec ID/Hint : XviD
Duration : 2h 6mn
Bit rate : 725 Kbps
Width : 640 pixels
Height : 272 pixels
Display aspect ratio : 2.35:1
Frame rate : 23.976 fps
Color space : YUV
Chroma subsampling : 4:2:0
Bit depth : 8 bits
Scan type : Progressive
Compression mode : Lossy
Bits/(Pixel*Frame) : 0.174
Stream size : 658 MiB (84%)
Writing library : XviD 1.2.1 (UTC 2008-12-04)
Audio #1
ID : 1
Format : MPEG Audio
Format version : Version 1
Format profile : Layer 3
Codec ID : 55
Codec ID/Hint : MP3
Duration : 2h 6mn
Bit rate mode : Constant
Bit rate : 128 Kbps
Channel(s) : 2 channels
Sampling rate : 48.0 KHz
Compression mode : Lossy
Stream size : 116 MiB (15%)
Alignment : Aligned on interleaves
Interleave, duration : 42 ms (1.00 video frame)
Interleave, preload duration : 504 ms
Writing library : LAME3.97
Encoding settings : -m s -V 4 -q 2 -lowpass 17 -b 128
♥ Качество: HDRip
♥ Продолжительность: 02:06:53

♥ Формат: AVI
♥ Видео кодек: XviD
♥ Аудио кодек: MP3
♥ Видео: 640x272 (2.35:1), 23.976 fps, XviD build 50 ~725 kbps avg, 0.174 bit/pixel
♥ Аудио1: 48 kHz, MPEG Layer 3, 2 ch, ~128.00 kbps avg

♥ Дата премьеры (мир): 24 мая 1989


Релиз Группы "Virtus"

Стол заказов /

Вступление в РГ / Благодарности, критика и друг
94cb3b129743f76449ce5485bf1896f07d66fb7aИндиана Джонс и последний крестовый поход / Indiana Jones and the Last Crusade (Стивен Спилберг, боевик, приключения, 1989) [HDRip, Профессиональный (многоголосый, закадровый)] Индиана Джонс и последний крестовый поход / Indiana Jones and the Last Crusade (Стивен Спилберг, боевик, приключения, 1989) [HDRip, Профессиональный (многоголосый, закадровый)] " />

Аплоадер: Админ, дата: 4-01-2013, 21:43, торрент скачан: 359 раз

Понравилась раздача? Посмотрите эти:
  • Погнали! / Getaway (Кортни Соломон, Боевик,Криминал, 2013) [HDRip, Професси ...
  • Скуби-Ду! Маска Синего Сокола / Scooby-Doo! Mask Of The Blue Falcon (Оливье ...
  • Лучший стрелок / Top Gun (Тони Скотт, боевик, драма, мелодрама, 1986) [BDRi ...
  • Псы войны / The Dogs of War (Джон Ирвин, боевик, драма, приключения, военны ...
  • Индиана Джонс [Трилогия] / Indiana Jones [Trilogy] (Стивен Спилберг /Steven ...
  • Индиана Джонс [Трилогия] / Indiana Jones [Trilogy] (Стивен Спилберг /Steven ...
  • Индиана Джонс и Королевство xрустального черепа / Indiana Jones and the Kin ...
  • [Квадрология] Индиана Джонс: Квадрология / Indiana Jones: Quadrology (Стиве ...
  • Эрик Викинг / Erik the Viking (Терри Джонс, фэнтези, комедия, приключения, ...
  • Индиана Джонс. Квадрология / Indiana Jones. The Complete collection (Стивен ...
  • Индиана Джонс: В поисках утраченного ковчега / Indiana Jones: Raiders of th ...
  • Индиана Джонс и Храм Судьбы / Indiana Jones and the Temple of Doom (Стивен ...
  • Индиана Джонс и последний крестовый поход / Indiana Jones and the Last Crus ...
  • Индиана Джонс и Королевство xрустального черепа / Indiana Jones and the Kin ...
  • Индиана Джонс: В поисках утраченного ковчега / Indiana Jones and the Raider ...
  • Индиана Джонс и Храм Судьбы / Indiana Jones and the Temple of Doom (Стивен ...
  • Индиана Джонс: Трилогия/The Complete Movie Collection [1981-1989, Боевик, ...
  • Индиана Джонс / Indiana Jones (Стивен Спилберг) [1981-1989 г., боевик, три ...
  • Индиана Джонс и Храм Судьбы / Indiana Jones and the Temple of Doom [Стивен ...
  • Индиана Джонс и последний крестовый поход / Indiana Jones and the Last Crus ...
  • Информация
    Посетители, находящиеся в группе Гости, не могут оставлять комментарии к данной публикации.