вход на сайт

Имя пользователя :
Пароль :

Восстановление пароля Регистрация
Индиана Джонс и Храм Судьбы / Indiana Jones and the Temple of Doom (Стивен Спилберг, боевик, приключения, 1984) [HDRip, Профессиональный (многоголосый, закадровый)]
Рейтинг:
(голосов: 1)



[img]{THEME}/images/logopost.png[/img]



•Индиана Джонс и Храм Судьбы / Indiana Jones and the Temple of Doom •

♥ Год выпуска: 1984
♥ Страна: США
♥ Производство: Paramount Pictures
♥ Жанр: боевик, приключения

♥ Режиссёр: Стивен Спилберг
♥ В ролях: Харрисон Форд, Кэйт Кэпшоу, Амриш Пури, Рошан Сет, Филип Стоун, Чуа Ках Джо

♥ Перевод: Профессиональный (многоголосый, закадровый)
♥ Субтитры: нет

♥ Описание: Вторая часть невероятных похождений прославленного археолога и искателя приключений Индианы Джонса. В этот раз бесстрашный доктор Джонс совершит путешествие в сердце Гималаев вместе с ресторанной певичкой Уилли Скотт и своим верным маленьким помощником Коротышкой.

Здесь, среди величественных гор, археологу и его спутникам предстоит столкнуться с кровавым культом поклонения древней Богине Смерти — Кали. Станет ли Индиана следующим несчастным, погибшим на жутком алтаре человеческих жертвоприношений, или ему, как всегда, удастся вырваться из цепких лап страха и разобраться со злодеями.


MediaInfo ▼
Text
General
Complete name : C:Indiana.Jones.and.the.Temple.of.Doom.1984_HDRip.avi
Format : AVI
Format/Info : Audio Video Interleave
File size : 743 MiB
Duration : 1h 58mn
Overall bit rate : 876 Kbps
Writing application : VirtualDubMod 1.5.10.2 (build 2540/release)
Writing library : VirtualDubMod build 2540/release
Video #0
ID : 0
Format : MPEG-4 Visual
Format profile : Advanced [email protected]
Format settings, BVOP : 1
Format settings, QPel : No
Format settings, GMC : No warppoints
Format settings, Matrix : Custom
Codec ID : XVID
Codec ID/Hint : XviD
Duration : 1h 58mn
Bit rate : 739 Kbps
Width : 640 pixels
Height : 272 pixels
Display aspect ratio : 2.35:1
Frame rate : 23.976 fps
Color space : YUV
Chroma subsampling : 4:2:0
Bit depth : 8 bits
Scan type : Progressive
Compression mode : Lossy
Bits/(Pixel*Frame) : 0.177
Stream size : 626 MiB (84%)
Writing library : XviD 1.2.1 (UTC 2008-12-04)
Audio #1
ID : 1
Format : MPEG Audio
Format version : Version 1
Format profile : Layer 3
Codec ID : 55
Codec ID/Hint : MP3
Duration : 1h 58mn
Bit rate mode : Constant
Bit rate : 128 Kbps
Channel(s) : 2 channels
Sampling rate : 48.0 KHz
Compression mode : Lossy
Stream size : 108 MiB (15%)
Alignment : Aligned on interleaves
Interleave, duration : 42 ms (1.00 video frame)
Interleave, preload duration : 504 ms
Writing library : LAME3.97
Encoding settings : -m s -V 4 -q 2 -lowpass 17 -b 128
♥ Качество: HDRip
♥ Продолжительность: 01:58:28

♥ Формат: AVI
♥ Видео кодек: XviD
♥ Аудио кодек: MP3
♥ Видео: 640x272 (2.35:1), 23.976 fps, XviD build 50 ~739 kbps avg, 0.177 bit/pixel
♥ Аудио1: 48 kHz, MPEG Layer 3, 2 ch, ~128.00 kbps avg

♥ Дата премьеры (мир): 23 мая 1984


Релиз Группы "Virtus"

Стол заказов /

Вступление в РГ / Благодарности, критика и другое



10db96e844ecff557b76156b08e1d2cd078fa6aaИндиана Джонс и Храм Судьбы / Indiana Jones and the Temple of Doom (Стивен Спилберг, боевик, приключения, 1984) [HDRip, Профессиональный (многоголосый, закадровый)] Индиана Джонс и Храм Судьбы / Indiana Jones and the Temple of Doom (Стивен Спилберг, боевик, приключения, 1984) [HDRip, Профессиональный (многоголосый, закадровый)] " />

Аплоадер: Админ, дата: 4-01-2013, 17:22, торрент скачан: 359 раз

Понравилась раздача? Посмотрите эти:
  • Погнали! / Getaway (Кортни Соломон, Боевик,Криминал, 2013) [HDRip, Професси ...
  • Неуловимые / Red Dawn (Дэн Брэдли, боевик, 2012) [HDRip, Профессиональный ( ...
  • Скуби-Ду! Маска Синего Сокола / Scooby-Doo! Mask Of The Blue Falcon (Оливье ...
  • Лучший стрелок / Top Gun (Тони Скотт, боевик, драма, мелодрама, 1986) [BDRi ...
  • Псы войны / The Dogs of War (Джон Ирвин, боевик, драма, приключения, военны ...
  • Индиана Джонс [Трилогия] / Indiana Jones [Trilogy] (Стивен Спилберг /Steven ...
  • Индиана Джонс [Трилогия] / Indiana Jones [Trilogy] (Стивен Спилберг /Steven ...
  • Индиана Джонс и Королевство xрустального черепа / Indiana Jones and the Kin ...
  • [Квадрология] Индиана Джонс: Квадрология / Indiana Jones: Quadrology (Стиве ...
  • Эрик Викинг / Erik the Viking (Терри Джонс, фэнтези, комедия, приключения, ...
  • Индиана Джонс. Квадрология / Indiana Jones. The Complete collection (Стивен ...
  • Индиана Джонс: В поисках утраченного ковчега / Indiana Jones: Raiders of th ...
  • Индиана Джонс и Храм Судьбы / Indiana Jones and the Temple of Doom (Стивен ...
  • Индиана Джонс и последний крестовый поход / Indiana Jones and the Last Crus ...
  • Индиана Джонс и Королевство xрустального черепа / Indiana Jones and the Kin ...
  • Чемпионат Европы 2012 / Группа D / 1-й тур / Украина - Швеция / Спорт 1 [11 ...
  • Tank Feat. T.I. & Kris Stephens / Compliments [2012, RnB,Hip-Hop, HDRip]
  • Следопыт / Tracker (Йен Шарп, боевик, драма, приключения, 2010) [HDRip, Про ...
  • Индиана Джонс: В поисках утраченного ковчега / Indiana Jones and the Raider ...
  • Индиана Джонс и последний крестовый поход / Indiana Jones and the Last Crus ...
  • Индиана Джонс / Indiana Jones (Стивен Спилберг) [1981-1989 г., боевик, три ...
  • Индиана Джонс и Храм Судьбы / Indiana Jones and the Temple of Doom [Стивен ...
  • Индиана Джонс и последний крестовый поход / Indiana Jones and the Last Crus ...
  • Замёрзший мир / 2012: Ice Age (Трэвис Форт, фантастика, боевик, 2011) [HDRi ...
  • Искажение / Skew (Сейв Челенз, ужасы, триллер, 2011) [HDRip, Профессиональн ...
  • Информация
    Посетители, находящиеся в группе Гости, не могут оставлять комментарии к данной публикации.