вход на сайт

Имя пользователя :
Пароль :

Восстановление пароля Регистрация
Индиана Джонс: В поисках утраченного ковчега / Indiana Jones and the Raiders of the Lost Ark (Стивен Спилберг, боевик, приключения, 1981) [HDRip, Профессиональный (многоголосый, закадровый)]
Рейтинг:
(голосов: 1)



[img]{THEME}/images/logopost.png[/img]



•Индиана Джонс: В поисках утраченного ковчега / Indiana Jones and the Raiders of the Lost Ark •
♥ Год выпуска: 1981
♥ Страна: США
♥ Производство: Paramount Pictures
♥ Жанр: боевик, приключения

♥ Режиссёр: Стивен Спилберг
♥ В ролях: Харрисон Форд, Карен Аллен, Пол Фриман, Рональд Лэйси, Джон Рис-Дэвис, Денхолм Эллиотт, Альфред Молина, Энтони Хиггинс

♥ Перевод: Профессиональный (многоголосый, закадровый)
♥ Субтитры: нет

♥ Описание: Известный археолог и специалист по оккультным наукам доктор Джонс получает опасное задание от правительства США. Он должен отправиться на поиски уникальной реликвии — священного Ковчега. Но Индиана и не подозревает, что аналогичный приказ уже получили тайные агенты Адольфа Гитлера


MediaInfo ▼
TextGeneral
Complete name : C:Indiana.Jones.And.The.Raiders.Of.The.Lost.Ark.1981_HDRip.avi
Format : AVI
Format/Info : Audio Video Interleave
File size : 744 MiB
Duration : 1h 55mn
Overall bit rate : 902 Kbps
Writing application : VirtualDubMod 1.5.10.2 (build 2540/release)
Writing library : VirtualDubMod build 2540/release
Video #0
ID : 0
Format : MPEG-4 Visual
Format profile : Advanced [email protected]
Format settings, BVOP : 1
Format settings, QPel : No
Format settings, GMC : No warppoints
Format settings, Matrix : Custom
Codec ID : XVID
Codec ID/Hint : XviD
Duration : 1h 55mn
Bit rate : 765 Kbps
Width : 688 pixels
Height : 288 pixels
Display aspect ratio : 2.40:1
Frame rate : 23.976 fps
Color space : YUV
Chroma subsampling : 4:2:0
Bit depth : 8 bits
Scan type : Progressive
Compression mode : Lossy
Bits/(Pixel*Frame) : 0.161
Stream size : 631 MiB (85%)
Writing library : XviD 1.2.1 (UTC 2008-12-04)
Audio #1
ID : 1
Format : MPEG Audio
Format version : Version 1
Format profile : Layer 3
Codec ID : 55
Codec ID/Hint : MP3
Duration : 1h 55mn
Bit rate mode : Constant
Bit rate : 128 Kbps
Channel(s) : 2 channels
Sampling rate : 48.0 KHz
Compression mode : Lossy
Stream size : 106 MiB (14%)
Alignment : Aligned on interleaves
Interleave, duration : 42 ms (1.00 video frame)
Interleave, preload duration : 504 ms
Writing library : LAME3.97
Encoding settings : -m s -V 4 -q 2 -lowpass 17 -b 128
♥ Качество: HDRip
♥ Продолжительность: 01:55:18

♥ Формат: AVI
♥ Видео кодек: XviD
♥ Аудио кодек: MP3
♥ Видео: 688x288 (2.40:1), 23.976 fps, XviD build 50 ~765 kbps avg, 0.161 bit/pixel
♥ Аудио1: 48 kHz, MPEG Layer 3, 2 ch, ~128.00 kbps avg

♥ Дата премьеры (мир): 12 июня 1981


Релиз Группы "Virtus"

Стол заказов /

Вступление в РГ / Благодарности, критика и другое



68b5cf4aba54552c30217162712e19117bc63093Индиана Джонс: В поисках утраченного ковчега / Indiana Jones and the Raiders of the Lost Ark (Стивен Спилберг, боевик, приключения, 1981) [HDRip, Профессиональный (многоголосый, закадровый)] Индиана Джонс: В поисках утраченного ковчега / Indiana Jones and the Raiders of the Lost Ark (Стивен Спилберг, боевик, приключения, 1981) [HDRip, Профессиональный (многоголосый, закадровый)] " />

Аплоадер: Админ, дата: 4-01-2013, 02:43, торрент скачан: 359 раз

Понравилась раздача? Посмотрите эти:
  • Погнали! / Getaway (Кортни Соломон, Боевик,Криминал, 2013) [HDRip, Професси ...
  • Индиана Джонс [Квадрология] / Indiana Jones [Quadrilogy] (Стивен Спилберг, ...
  • Скуби-Ду! Маска Синего Сокола / Scooby-Doo! Mask Of The Blue Falcon (Оливье ...
  • Лучший стрелок / Top Gun (Тони Скотт, боевик, драма, мелодрама, 1986) [BDRi ...
  • Псы войны / The Dogs of War (Джон Ирвин, боевик, драма, приключения, военны ...
  • Индиана Джонс [Трилогия] / Indiana Jones [Trilogy] (Стивен Спилберг /Steven ...
  • Индиана Джонс [Трилогия] / Indiana Jones [Trilogy] (Стивен Спилберг /Steven ...
  • Индиана Джонс: Квадрология / Indiana Jones: Quadrology (Стивен Спилберг, пр ...
  • Индиана Джонс и Королевство xрустального черепа / Indiana Jones and the Kin ...
  • [Квадрология] Индиана Джонс: Квадрология / Indiana Jones: Quadrology (Стиве ...
  • Эрик Викинг / Erik the Viking (Терри Джонс, фэнтези, комедия, приключения, ...
  • Индиана Джонс. Квадрология / Indiana Jones. The Complete collection (Стивен ...
  • Индиана Джонс: В поисках утраченного ковчега / Indiana Jones: Raiders of th ...
  • Индиана Джонс и Храм Судьбы / Indiana Jones and the Temple of Doom (Стивен ...
  • Индиана Джонс и последний крестовый поход / Indiana Jones and the Last Crus ...
  • Индиана Джонс и Королевство xрустального черепа / Indiana Jones and the Kin ...
  • Индиана Джонс: Квадрология / Indiana Jones: The Complete Adventures (Стиве ...
  • Чемпионат Европы 2012 / Группа D / 1-й тур / Украина - Швеция / Спорт 1 [11 ...
  • Следопыт / Tracker (Йен Шарп, боевик, драма, приключения, 2010) [HDRip, Про ...
  • Индиана Джонс и Храм Судьбы / Indiana Jones and the Temple of Doom (Стивен ...
  • Индиана Джонс и последний крестовый поход / Indiana Jones and the Last Crus ...
  • Индиана Джонс / Indiana Jones (Стивен Спилберг) [1981-1989 г., боевик, три ...
  • Индиана Джонс: В поисках утраченного Ковчега / Raiders of the Lost Ark [Сти ...
  • Индиана Джонс и Храм Судьбы / Indiana Jones and the Temple of Doom [Стивен ...
  • Индиана Джонс и последний крестовый поход / Indiana Jones and the Last Crus ...
  • Информация
    Посетители, находящиеся в группе Гости, не могут оставлять комментарии к данной публикации.