вход на сайт

Имя пользователя :
Пароль :

Восстановление пароля Регистрация
Пуленепробиваемый / Bulletproof (Эрнест Р. Дикерсон, боевик, комедия, криминал, приключения,1996) [HDRip, Профессиональный (многоголосый, закадровый)]
Рейтинг:
(голосов: 1)



[img]{THEME}/images/logopost.png[/img]



•Пуленепробиваемый / Bulletproof •
♥ Год выпуска: 1996
♥ Страна: США
♥ Производство: Universal Pictures
♥ Жанр: боевик, комедия, криминал, приключения

♥ Режиссёр: Эрнест Р. Дикерсон
♥ В ролях: Дэймон Уайанс, Адам Сэндлер, Джеймс Каан, Джип Свенсон, Джеймс Фарентино, Кристен Уилсон, Ларри МакКой, Аллен Коверт, Билл Нанн, Марк Робертс

♥ Перевод: Профессиональный (многоголосый, закадровый)
♥ Субтитры: Отсутствуют

♥ Описание: Рок Китс и Арчи Моузес — лучшие друзья. Год назад Моузес, мелкий воришка и мошенник, взял Китса «в дело». С тех пор они не расставались и вместе совершили целый ряд небольших преступлений. Все меняется, когда друзья оказываются вовлеченными в крупномасштабную операцию, проводимую наркобароном Фрэнком Колтоном.

Рок Китс на самом деле оказывается агентом полиции, его настоящее имя Джек Картер. Полицейскому под прикрытием Картеру не удается арестовать организатора операции Колтона, поэтому он пытается арестовать своего друга Моузеса. Моузес стреляет в Картера и сбегает с места преступления. Вскоре полиция настигает Моузеса.

Он соглашается дать показания против наркобарона Колтона при одном условии: к месту проведения судебного слушания его должен проводить бывший друг Китс-Картер. Вскоре друзья встречаются вновь и вместе отправляются в опасное путешествие. Выживут ли они? Выживет ли их дружба?


MediaInfo ▼
TextGeneral
Complete name : C:Puleneprobivaemiy.HDRip.XviD.avi
Format : AVI
Format/Info : Audio Video Interleave
File size : 740 MiB
Duration : 1h 24mn
Overall bit rate : 1 226 Kbps
Writing application : VirtualDubMod 1.5.10.2 (build 2540/release)
Writing library : VirtualDubMod build 2540/release
Video #0
ID : 0
Format : MPEG-4 Visual
Format profile : Advanced [email protected]
Format settings, BVOP : 1
Format settings, QPel : No
Format settings, GMC : No warppoints
Format settings, Matrix : Default (MPEG)
Muxing mode : Packed bitstream
Codec ID : XVID
Codec ID/Hint : XviD
Duration : 1h 24mn
Bit rate : 1 089 Kbps
Width : 688 pixels
Height : 288 pixels
Display aspect ratio : 2.40:1
Frame rate : 23.976 fps
Color space : YUV
Chroma subsampling : 4:2:0
Bit depth : 8 bits
Scan type : Progressive
Compression mode : Lossy
Bits/(Pixel*Frame) : 0.229
Stream size : 658 MiB (89%)
Writing library : XviD 1.2.1 (UTC 2008-12-04)
Audio #1
ID : 1
Format : MPEG Audio
Format version : Version 1
Format profile : Layer 3
Codec ID : 55
Codec ID/Hint : MP3
Duration : 1h 24mn
Bit rate mode : Constant
Bit rate : 128 Kbps
Channel(s) : 2 channels
Sampling rate : 48.0 KHz
Compression mode : Lossy
Stream size : 77.1 MiB (10%)
Alignment : Aligned on interleaves
Interleave, duration : 42 ms (1.00 video frame)
Interleave, preload duration : 504 ms
Writing library : LAME3.97
Encoding settings : -m s -V 4 -q 2 -lowpass 17 -b 128
♥ Качество: HDRip
♥ Продолжительность: 01:24:24

♥ Формат: AVI
♥ Видео кодек: XviD
♥ А
3a830316c9479460d9c1de93484de11615cde4ddПуленепробиваемый / Bulletproof (Эрнест Р. Дикерсон, боевик, комедия, криминал, приключения,1996) [HDRip, Профессиональный (многоголосый, закадровый)] Пуленепробиваемый / Bulletproof (Эрнест Р. Дикерсон, боевик, комедия, криминал, приключения,1996) [HDRip, Профессиональный (многоголосый, закадровый)] " />

Аплоадер: Админ, дата: 3-01-2013, 18:16, торрент скачан: 359 раз

Понравилась раздача? Посмотрите эти:
  • Погнали! / Getaway (Кортни Соломон, Боевик, Криминал, 2013) [HDRip, Професс ...
  • Погнали! / Getaway (Кортни Соломон, Боевик,Криминал, 2013) [HDRip, Професси ...
  • Верное дельце / Une pure affaire (Александр Коффре, Боевик, Комедия, Кримин ...
  • Посылка / The Package (Джесси Джонсон, боевик, 2013) [HDRip, Профессиональн ...
  • Посылка / The Package (Джесси Джонсон, боевик, 2013) [HDRip, Профессиональн ...
  • 12 раундов: Перезагрузка / 12 Rounds: Reloaded (Роэль Рейн, Боевик, 2013) [ ...
  • Скуби-Ду! Маска Синего Сокола / Scooby-Doo! Mask Of The Blue Falcon (Оливье ...
  • Псы войны / The Dogs of War (Джон Ирвин, боевик, драма, приключения, военны ...
  • Простые истины / Straight As (Джеймс Кокс, драма, комедия, 2013) [HDRip, П ...
  • Новые парни турбо / New Kids Turbo (Штефен Хаарс, Боевик, комедия, 2010) [H ...
  • Чемпионат Европы 2012 / Группа D / 1-й тур / Украина - Швеция / Спорт 1 [11 ...
  • Tank Feat. T.I. & Kris Stephens / Compliments [2012, RnB,Hip-Hop, HDRip]
  • Следопыт / Tracker (Йен Шарп, боевик, драма, приключения, 2010) [HDRip, Про ...
  • Пуленепробиваемый / Bulletproof (Эрнест Р. Дикерсон, Боевик, комедия, крими ...
  • Индиана Джонс: В поисках утраченного ковчега / Indiana Jones and the Raider ...
  • Чемпионат Европы 2012 / Группа B / 1-й тур / Германия - Португалия / Спорт ...
  • Замёрзший мир / 2012: Ice Age (Трэвис Форт, фантастика, боевик, 2011) [HDRi ...
  • Супершторм в Сиэтле / Seattle Superstorm (Джейсон Бурк, фантастика, боевик ...
  • Искажение / Skew (Сейв Челенз, ужасы, триллер, 2011) [HDRip, Профессиональн ...
  • Ничего, кроме правды / Nothing But the Truth (Род Лури, триллер, драма, 200 ...
  • Информация
    Посетители, находящиеся в группе Гости, не могут оставлять комментарии к данной публикации.