вход на сайт

Имя пользователя :
Пароль :

Восстановление пароля Регистрация
Следопыт / Tracker (Йен Шарп, боевик, драма, приключения, 2010) [HDRip, Профессиональный (двухголосый закадровый)]
Рейтинг:
(голосов: 1)



[img]{THEME}/images/logopost.png[/img]



• Следопыт / Tracker •
♥ Год выпуска: 2010
♥ Страна: Великобритания, Новая Зеландия
♥ Производство: Phoenix Wiley, T.H.E. Films
♥ Жанр: боевик, драма, приключения

♥ Режиссёр: Йен Шарп
♥ В ролях: Рэй Уинстоун, Темуэра Моррисон, Гарет Ривз, Марк Митчинсон, Энди Андерсон, Мик Роуз, Джоди Хиллок, Тим МакЛахлан, Стив Рейнсфилд

♥ Перевод: Профессиональный (двухголосый закадровый)
♥ Озвучка: НТВ +
♥ Субтитры: Отсутствуют

♥ Описание: Новая Зеландия, 1903 год. Бывший партизан закончившейся англо-бурской войны, примыкает к отряду, посланному поймать маори (представитель коренного населения Новой Зеландии), обвиняемого в убийстве английского солдата. Обладая редкими навыками читать следы, он первым настигает разыскиваемого. Дальнейшее конвоирование, общение и даже конфликты приводят к росту их взаимного уважения. Но по пятам идет отряд англичан, целью которых является показательное повешение обвиняемого.


MediaInfo ▼
TextGeneral
Complete name : C:Следопыт Tracker (Ian Sharp)2010, HDRip.(НТВ +).avi
Format : AVI
Format/Info : Audio Video Interleave
File size : 744 MiB
Duration : 1h 42mn
Overall bit rate : 1 018 Kbps
Writing application : VirtualDubMod 1.5.10.2 (build 2540/release)
Writing library : VirtualDubMod build 2540/release
Video #0
ID : 0
Format : MPEG-4 Visual
Format profile : Advanced [email protected]
Format settings, BVOP : 1
Format settings, QPel : No
Format settings, GMC : No warppoints
Format settings, Matrix : Custom
Codec ID : XVID
Codec ID/Hint : XviD
Duration : 1h 42mn
Bit rate : 881 Kbps
Width : 688 pixels
Height : 288 pixels
Display aspect ratio : 2.40:1
Frame rate : 23.976 fps
Color space : YUV
Chroma subsampling : 4:2:0
Bit depth : 8 bits
Scan type : Progressive
Compression mode : Lossy
Bits/(Pixel*Frame) : 0.185
Stream size : 644 MiB (87%)
Writing library : XviD 1.2.1 (UTC 2008-12-04)
Audio #1
ID : 1
Format : MPEG Audio
Format version : Version 1
Format profile : Layer 3
Codec ID : 55
Codec ID/Hint : MP3
Duration : 1h 42mn
Bit rate mode : Constant
Bit rate : 128 Kbps
Channel(s) : 2 channels
Sampling rate : 48.0 KHz
Compression mode : Lossy
Stream size : 93.6 MiB (13%)
Alignment : Aligned on interleaves
Interleave, duration : 42 ms (1.00 video frame)
Interleave, preload duration : 504 ms
Writing library : LAME3.99r
Encoding settings : -m s -V 4 -q 2 -lowpass 17 -b 128
♥ Качество: HDRip
♥ Продолжительность: 01:42:13

♥ Формат: AVI
♥ Видео кодек: XviD
♥ Аудио кодек: MP3
♥ Видео: 688x288 (2.40:1), 23.976 fps, XviD build 50 881 kbps, 0.185 bit/pixel
♥ Аудио: 48 kHz, MPEG Layer 3, 2 ch, 128.00 kbps

♥ Дата премьеры (мир): 12 сентября 2010

Релиз Группы "Virtus"

Стол заказов / Вступление в РГ / Благодарности, критика и другое


0a9eb36b6b0f701526e3cf999de805b6a0a54cddСледопыт / Tracker (Йен Шарп, боевик, драма, приключения, 2010) [HDRip, Профессиональный (двухголосый закадровый)] Следопыт / Tracker (Йен Шарп, боевик, драма, приключения, 2010) [HDRip, Профессиональный (двухголосый закадровый)] " />

Аплоадер: Админ, дата: 23-12-2012, 15:03, торрент скачан: 359 раз

Понравилась раздача? Посмотрите эти:
  • Погнали! / Getaway (Кортни Соломон, Боевик,Криминал, 2013) [HDRip, Професси ...
  • Вирус / Flu (Ким Сон Су, Драма, 2013) [HDTVRip, Любительский (двухголосый з ...
  • Посылка / The Package (Джесси Джонсон, боевик, 2013) [HDRip, Профессиональн ...
  • Игра смерти / Game of death (Роберт Клауз, Саммо Хунг Кам-Бо, Брюс Ли, боев ...
  • Цель Номер Один / Zero Dark Thirty (Кэтрин Бигелоу, боевик, триллер, драма, ...
  • Неуловимые / Red Dawn (Дэн Брэдли, боевик, 2012) [HDRip, Профессиональный ( ...
  • Скуби-Ду! Маска Синего Сокола / Scooby-Doo! Mask Of The Blue Falcon (Оливье ...
  • Лучший стрелок / Top Gun (Тони Скотт, боевик, драма, мелодрама, 1986) [BDRi ...
  • Псы войны / The Dogs of War (Джон Ирвин, боевик, драма, приключения, военны ...
  • Новые парни турбо / New Kids Turbo (Штефен Хаарс, Боевик, комедия, 2010) [H ...
  • Чемпионат Европы 2012 / Группа D / 1-й тур / Украина - Швеция / Спорт 1 [11 ...
  • Tank Feat. T.I. & Kris Stephens / Compliments [2012, RnB,Hip-Hop, HDRip]
  • Индиана Джонс: В поисках утраченного ковчега / Indiana Jones and the Raider ...
  • Романтики / The Romantics (Галт Нидерхоффер, Драма, мелодрама, комедия, 201 ...
  • Чемпионат Европы 2012 / Группа B / 1-й тур / Германия - Португалия / Спорт ...
  • Замёрзший мир / 2012: Ice Age (Трэвис Форт, фантастика, боевик, 2011) [HDRi ...
  • Следопыт / Tracker (Йен Шарп, боевик, драма, приключения, 2010) [HDRip, Про ...
  • Искажение / Skew (Сейв Челенз, ужасы, триллер, 2011) [HDRip, Профессиональн ...
  • Ничего, кроме правды / Nothing But the Truth (Род Лури, триллер, драма, 200 ...
  • Крузо / Crusoe (Калеб Дешанель, Драма, 1988) [HDTVRip, Профессиональный (дв ...
  • Информация
    Посетители, находящиеся в группе Гости, не могут оставлять комментарии к данной публикации.