вход на сайт

Имя пользователя :
Пароль :

Восстановление пароля Регистрация
Огненный шторм / Firestorm (Дин Семлер, Боевик, Триллер, 1998) [DVDRip, Профессиональный (многоголосый закадровый)]
Рейтинг:
(голосов: 1)



[img]{THEME}/images/logopost.png[/img]



Огненный шторм / Firestorm

Год выпуска:1998
Страна: США
Производство: 20th Century Fox Film Corporation
Жанр: Боевик, Триллер

Режиссёр: Дин Семлер
В ролях: Хоуи Лонг, Скотт Гленн, Уильям Форсайт, Сьюзи Эймис, Кристианна Херт, Гарвин Санфорд, Себастьян Спенс, Майкл Грейес, Барри Пеппер, Владимир Кулих и др ...

Перевод: Профессиональный (многоголосый, закадровый)
Субтитры: Oтсутствуют

Описание: Рэндел Шей — жестокий убийца, отбывающий срок за ограбление поезда. Ему удается осуществить дерзкий побег. Неподалеку от тюрьмы подстроен лесной пожар, который позволяет скрыться Шэю и группе уголовников. Джесси Грэйвз — командир элитного отряда пожарников, которых называют «прыгунами в дым».
Во время больших лесных пожаров команду Грейвза десантируют с самолета прямо в пламя, в места недоступные для наземных подразделений. Когда поступает сигнал о стихийном бедствии, Джесси еще не подозревает, что ему в одиночку предстоит смертельный поединок не только с разбушевавшейся стихией, но и с бандой опасных преступников…
Качество: DVDRip
Продолжительность: 01:25:05

Формат: AVI
Видео кодек: XviD
Аудио кодек: MP3
Видео: 720x304 (2.35:1), 25.000 fps, XviD ~ 1087 kbps avg, 0.199 bit/pixel
Аудио: 48 kHz, MPEG Layer 3, 2 ch, ~128 kbps
MediaInfo ▼TextОбщее
Полное имя : Ognenyi.shtorm.1998.P.DVDRip.745MB.avi
Формат : AVI
Формат/Информация : Audio Video Interleave
Размер файла : 745 Мбайт
Продолжительность : 1 ч. 25 м.
Общий поток : 1224 Кбит/сек
Программа кодирования : VirtualDubMod 1.5.10.3 | www.virtualdub-fr.org || (build 2550/release)
Библиотека кодирования : VirtualDubMod build 2550/release
Видео
Идентификатор : 0
Формат : MPEG-4 Visual
Профиль формата : Advanced [email protected]
Параметр BVOP формата : 1
Параметр QPel формата : Нет
Параметр GMC формата : Без точки перехода
Параметр матрицы формата : Выборочная
Идентификатор кодека : XVID
Идентификатор кодека/Подсказка : XviD
Продолжительность : 1 ч. 25 м.
Битрейт : 1087 Кбит/сек
Ширина : 720 пикселей
Высота : 304 пикселя
Соотношение сторон : 2,35:1
Частота кадров : 25,000 кадров/сек
Цветовое пространство : YUV
Субдискретизация насыщенности : 4:2:0
Битовая глубина : 8 бит
Тип развёртки : Прогрессивная
Метод сжатия : С потерями
Бит/(Пиксели*Кадры) : 0.199
Размер потока : 661 Мбайт (89%)
Библиотека кодирования : XviD 65
Аудио
Идентификатор : 1
Формат : MPEG Audio
Версия формата : Version 1
Профиль формата : Layer 3
Идентификатор кодека : 55
Идентификатор кодека/Подсказка : MP3
Продолжительность : 1 ч. 25 м.
Вид битрейта : Постоянный
Битрейт : 128 Кбит/сек
Каналы : 2 канала
Частота : 48,0 КГц
Метод сжатия : С потерями
Размер потока : 77,9 Мбайт (10%)
Выравнивание : Соединение по промежуткам
Продолжительность промежутка : 40 мс. (1,00 видеокадр)
Время предзагрузки промежутка : 504 мс.






6dd701014df1918a949d6da7f7a649cf1dee33acОгненный шторм / Firestorm (Дин Семлер, Боевик, Триллер, 1998) [DVDRip, Профессиональный (многоголосый закадровый)] Огненный шторм / Firestorm (Дин Семлер, Боевик, Триллер, 1998) [DVDRip, Профессиональный (многоголосый закадровый)] " />

Аплоадер: Админ, дата: 12-01-2013, 23:56, торрент скачан: 359 раз

Понравилась раздача? Посмотрите эти:
  • Грязная кампания за честные выборы / The Campaign (Джей Роуч , Комедия,201 ...
  • Слежка / The Letter (Джей Ананья, Триллер, драма, 2012) [DVDRip, Профессион ...
  • Миллион для чайников / The Brass Teapot (Рамаа Мосли, Фэнтези, триллер, ком ...
  • Астрал на улице Арлетт / 388 Arletta Avenue (Рэндолл Коул, Триллер, 2011) [ ...
  • Это - Англия. Год 1986 / This Is England 86 // Сезон 1, эпизоды с 1 по 4 (и ...
  • Рождённый свободным / The Colt (Елена Ланская, драма, боевик, история, 200 ...
  • Киддо - супергрузовичок / Kiddo The Super Truck (Д. Нэйр, Мультфильм, 2002) ...
  • Отбой / Taps (Харольд Беккер, Драма, 1981) [DVDRip, Профессиональный (много ...
  • Путешествие на дно моря / Voyage to the Bottom of the Sea (Ирвин Аллен / I ...
  • Кажется, я люблю свою жену / I Think I Love My Wife (Крис Рок, Драма, мелод ...
  • Огненный шторм / Firestorm (Дин Семлер, Боевик, Триллер, 1998) [DVDRip, Про ...
  • Темный сахар / Brown Sugar (Рик Фамуйива, Драма, мелодрама, комедия, музыка ...
  • 1812: Уланская баллада (Олег Фесенко, приключения, 2012) [DVDRip, Не требуе ...
  • Бог любви / God of Love (Люк Мэзени, Короткометражка, фэнтези, комедия, мел ...
  • К-9: Рождественские приключения / K9 Adventures: A Christmas Tale (Бен Гурл ...
  • Кейси Джонс / Casey Jones (Иларион Бэнкс, Короткометражка, фэнтези, боевик, ...
  • Заместитель / Il supplente (Андреа Жублин, Короткометражка, комедия, 2007) ...
  • Покорить высоту / Take It to the Limit (Сэм Кит / Sam Kieth, семейный, 2000 ...
  • Светлячок. Воссоединение Коричневых плащей к 10 годовщине / Firefly 10th An ...
  • А что насчет тебя? / How About You (Энтони Бирн, Драма, комедия, 2007) [DVD ...
  • У дьявола нет лица / Plasterhead (Кевин Хиггинс / Kevin Higgins, ужасы, три ...
  • Брат якудзы / Brother (Такеши Китано, триллер, драма, криминал, 2000) [HDRi ...
  • Детский душ / Baby Shower (Pablo Illanes, Ужасы, 2011) [DVDRip, Любительски ...
  • Крест / Cross (Патрик Дархэм, боевик, 2011) [DVDRip, Профессиональный (мног ...
  • Пожирая живых / Ночь зомби / Zombie Night (Дэвид Дж. Фрэнсис, Ужасы, комеди ...
  • Информация
    Посетители, находящиеся в группе Гости, не могут оставлять комментарии к данной публикации.