вход на сайт

Имя пользователя :
Пароль :

Восстановление пароля Регистрация
Морпехи / Jarhead (Сэм Мендес, Драма, военный, биография, 2005) [HDRip, Профессиональный (полное дублирование)]
Рейтинг:
(голосов: 1)



[img]{THEME}/images/logopost.png[/img]



Морпехи / Jarhead

Год выпуска: 2005
Страна: Германия, США
Производство: Universal Pictures
Жанр: драма, военный, биография

Режиссёр: Сэм Мендес / Sam Mendes
В ролях: Джейк Джилленхол, Питер Сарсгаард, Крис Купер, Джейми Фокс, Лукас Блэк, Брайан Джерати, Джейкоб Варгас, Лас Алонсо, Ивэн Джонс, Деннис Хейсбёрт

Перевод: Профессиональный (полное дублирование)
Субтитры: Oтсутствуют

Описание: Действие картины разворачивается во время войны в Персидском заливе. Морской пехотинец Энтони Суоффорд — потомственный военный. После курса подготовки в специальном лагере его отправляют на Ближний Восток, где идут военные действия.
Со снайперской винтовкой в руках и с тяжелым рюкзаком за плечами ему предстоит проделать нелегкий путь по пустыне, где нет спасения от невыносимой жары и иракских солдат, которые в любую минуту могут появиться на горизонте.
Суоффорд и его друзья-однополчане делают все возможное, чтобы поддержать друг друга в этой сложной обстановке. Чувствуя себя совершенно чужими в этой стране, они вынуждены сражаться с невидимым врагом за неведомые им идеалы…



Качество: HDRip
Продолжительность: 02:02:42

Формат: AVI
Видео кодек: XviD
Аудио кодек: MP3
Видео: 688x288 (2.39:1), 23.976 fps, XviD build 50 ~712 kbps avg, 0.15 bit/pixel
Аудио: 48 kHz, MPEG Layer 3, 2 ch, ~128.00 kbps avg

Дата премьеры (мир): 4 ноября 2005
Дата премьеры (РФ): 19 января 2006, «UIP»

"MediaInfo" ▼TextGeneral
Complete name : /Морпехи.avi
Format : AVI
Format/Info : Audio Video Interleave
File size : 746 MiB
Duration : 2h 2mn
Overall bit rate : 850 Kbps
Writing application : VirtualDubMod 1.5.10.2 (build 2540/release)
Writing library : VirtualDubMod build 2540/release

Video
ID : 0
Format : MPEG-4 Visual
Format profile : Advanced [email protected]
Format settings, BVOP : 1
Format settings, QPel : No
Format settings, GMC : No warppoints
Format settings, Matrix : Default (H.263)
Codec ID : XVID
Codec ID/Hint : XviD
Duration : 2h 2mn
Bit rate : 712 Kbps
Width : 688 pixels
Height : 288 pixels
Display aspect ratio : 2.40:1
Frame rate : 23.976 fps
Color space : YUV
Chroma subsampling : 4:2:0
Bit depth : 8 bits
Scan type : Progressive
Compression mode : Lossy
Bits/(Pixel*Frame) : 0.150
Stream size : 625 MiB (84%)
Writing library : XviD 1.2.1 (UTC 2008-12-04)

Audio
ID : 1
Format : MPEG Audio
Format version : Version 1
Format profile : Layer 3
Mode : Joint stereo
Mode extension : MS Stereo
Codec ID : 55
Codec ID/Hint : MP3
Duration : 2h 2mn
Bit rate mode : Constant
Bit rate : 128 Kbps
Channel(s) : 2 channels
Sampling rate : 48.0 KHz
Compression mode : Lossy
Stream size : 112 MiB (15%)
Alignment : Aligned on interleaves
Interleave, duration : 42 ms (1.00 video frame)
Interleave, preload duration : 504 ms

05ff840baec71b752b63b11c305a63034ef57654Морпехи / Jarhead (Сэм Мендес, Драма, военный, биография, 2005) [HDRip, Профессиональный (полное дублирование)] Морпехи / Jarhead (Сэм Мендес, Драма, военный, биография, 2005) [HDRip, Профессиональный (полное дублирование)] " />

Аплоадер: Админ, дата: 18-01-2013, 22:15, торрент скачан: 359 раз

Понравилась раздача? Посмотрите эти:
  • Морпехи / Jarhead (Сэм Мендес, драма, военный, биография, 2005) [BDRip, Авт ...
  • Джобс: Империя соблазна / jOBS (Джошуа Майкл Штерн, Драма, биография, 2013) ...
  • Лавлэйс / Lovelace (Роб Эпштейн, Джеффри Фридман, драма, биография, 2013) [ ...
  • Властелин любви / The Look of Love (Майкл Уинтерботтом, Драма, комедия, био ...
  • Ледяной / The Iceman (Ариэль Вромен, триллер, драма, криминал, биография, 2 ...
  • Морпехи / Jarhead (Сэм Мендес, Драма, военный, биография, 2005) [BDRip, Дуб ...
  • [EN] 42 / 42 (Брайан Хелгеленд, Драма, биография, спорт, 2013) [BDRip, Ориг ...
  • 42 / 42 (Брайан Хелгеленд, драма, биография, спорт, 2013) [BDRip, Профессио ...
  • Муви 43 / Movie 43 (Стивен Брилл, Питер Фаррелли, Элизабет БэнксСтивен, ком ...
  • Лучший стрелок / Top Gun (Тони Скотт, боевик, драма, мелодрама, 1986) [BDRi ...
  • Псы войны / The Dogs of War (Джон Ирвин, боевик, драма, приключения, военны ...
  • Экипаж / Flight (Роберт Земекис, Драма, 2012) [BDRip, Профессиональный (пол ...
  • Морпехи / Jarhead (Сэм Мендес, драма, военный, биография, 2005) [BDRip-AVC, ...
  • Новые парни турбо / New Kids Turbo (Штефен Хаарс, Боевик, комедия, 2010) [H ...
  • Руби Спаркс / Ruby Sparks (Джонатан Дэйтон, Валери Фэрис, Фэнтези, мелодрам ...
  • Коллекционер 2 / The Collection (Маркус Данстэн, ужасы, боевик, триллер , 2 ...
  • Морпехи / Jarhead (Сэм Мендес, Драма, военный, биография, 2005) [BDRip-AVC, ...
  • Морпехи / Jarhead (Сэм Мендес /Sam Mendes,2005г.,Боевик,драма) [DVDRip,Дубл ...
  • Жизнь за гранью / After.Life (Агнешка Войтович-Восло, триллер, драма, детек ...
  • Жизнь за гранью / After.Life (Агнешка Войтович-Восло, триллер, драма, детек ...
  • Человек, который изменил всё / Moneyball (Беннетт Миллер, драма, биография, ...
  • Полусвет / Half Light (Крэйг Розенберг, Ужасы, триллер, драма, детектив, 20 ...
  • Мемуары гейши / Memoirs of a Geisha (Роб Маршалл, драма, мелодрама, 2005) [ ...
  • Во имя чести / Ji jie hao / Assembly (Фэн Сяоган, Боевик, Драма, Военный, Б ...
  • Ничего, кроме правды / Nothing But the Truth (Род Лури, триллер, драма, 200 ...
  • Информация
    Посетители, находящиеся в группе Гости, не могут оставлять комментарии к данной публикации.