вход на сайт

Имя пользователя :
Пароль :

Восстановление пароля Регистрация
Роб Рой / Rob Roy (Майкл Кейтон-Джонс, боевик, драма, мелодрама, 1995) [BDRip-AVC, Профессиональный (многоголосый, закадровый) + Авторский одноголосый (А. Гаврилов) + Оригинал (Английский) + Sub]
Рейтинг:
(голосов: 1)



[img]{THEME}/images/logopost.png[/img]



Роб Рой / Rob Roy

Год выпуска: 1995
Страна: США, Великобритания
Производство: United Artists
Жанр: боевик, драма, мелодрама, военный, биография, история

Режиссёр: Майкл Кейтон-Джонс
В ролях: Лиам Нисон, Джессика Лэнг, Джон Хёрт, Тим Рот, Эрик Штольц, Эндрю Кир, Брайан Кокс, Брайан МакКарди, Гилберт Мартин, Вики Массон

Перевод: Профессиональный (многоголосый, закадровый) + Авторский одноголосый (А. Гаврилов) + Оригинал (Английский))
Субтитры: Английские (SDH)

Описание: Зима на севере Шотландии очень сурова, и Роб Рой, чтобы обеспечить свой семейный клан, вынужден просить денег у не слишком благородного маркиза Монтерозского.

Однако, прихвостень маркиза коварно завладевает этими деньгами, и Роб Рой оказывается втянутым в самую опасную схватку в своей жизни.



Качество: BDRip-AVC | исх: Rob Roy 1995 Blu-Ray 1080p AVC DTS-HD MA | Сэмпл
Продолжительность: 02:19:17

Формат: MKV
Видео кодек: H.264
Аудио кодек: АС3
Видео: 1152x492 (2.35:1), 23.976 fps, AVC ~2906 kbps avg, 0.210 bit/pixel
Аудио №1: 48 kHz, AC3 Dolby Digital, 2 ch, ~192 kbps avg | Профессиональный (многоголосый, закадровый)
Аудио №2:48 kHz, AC3 Dolby Digital, 2 ch, ~192 kbps avg | Авторский одноголосый (A.Гаврилов)
Аудио №3:48 kHz, AC3 Dolby Digital, 2 ch, ~640 kbps avg | Оригинал (Английский)

Дата премьеры (мир): 7 апреля 1995


"Mediainfo:" ▼TextGeneral
Complete name : Rob Roy 1995 x264 tRuAVC.mkv
Format : Matroska
File size : 3.83 GiB
Duration : 2h 19mn
Overall bit rate : 3 933 Kbps
Encoded date : UTC 2010-01-12 06:53:36
Writing application : mkvmerge v3.0.0 (Hang up your Hang-Ups) built on Dec 12 2009 15:20:35
Writing library : libebml v0.7.9 + libmatroska v0.8.1
Cover : Yes

Video
ID : 1
Format : AVC
Format/Info : Advanced Video Codec
Format profile : [email protected]
Format settings, CABAC : Yes
Format settings, ReFrames : 12 frames
Muxing mode : Container [email protected]
Codec ID : V_MPEG4/ISO/AVC
Duration : 2h 19mn
Bit rate : 2 830 Kbps
Width : 1 152 pixels
Height : 492 pixels
Display aspect ratio : 2.35:1
Frame rate : 23.976 fps
Resolution : 8 bits
Colorimetry : 4:2:0
Scan type : Progressive
Bits/(Pixel*Frame) : 0.208
Stream size : 2.75 GiB (72%)
Title : 1152x492 (2.35:1); 2906 Kbps; 23,976 fps; 0.210 bpp
Writing library : x264 core 80 r1376bm 3feaec2
Encoding settings : cabac=1 / ref=12 / deblock=1:-2:-1 / analyse=0x3:0x113 / me=umh / subme=10 / psy=1 / psy_rd=1.1:0.1 / mixed_ref=1 / me_range=24 / chroma_me=1 / trellis=2 / 8x8dct=1 / cqm=0 / deadzone=21,11 / fast_pskip=1 / chroma_qp_offset=-3 / threads=6 / sliced_threads=0 / nr=0 / decimate=1 / mbaff=0 / constrained_intra=0 / bframes=12 / b_pyramid=2 / b_adapt=2 / b_bias=0 / direct=3 / wpredb=1 / wpredp=2 / keyint=250 / keyint_min=25 / scenecut=45 / rc=crf / mbtree=0 / crf=19.2 / qcomp=0.60 / qpmin=10 / qpmax=51 / qpstep=4 / ip_ratio=1.40 / pb_ratio=1.30 / aq=4:1.00
Language : English
Matrix coefficients : BT.709-5, BT.1361, IEC 61966-2-4 709, SMPTE RP177

Audio #1
ID : 2
Format : AC-3
Format/Info : Audio Coding 3
Codec ID : A_AC3
Duration : 2h 19mn
Bit rate mode : Constant
Bit rate : 192 Kbps
Channel(s) : 2 channels
Channel positions : L R
Sampling rate : 48.0 KHz
Stream size : 191 MiB (5%)
Title : AC3; 192 Kbps; CBR; 2 ch; MVO
Language : Russian

Audio #2
ID : 3
Format : AC-3
Format/Info : Audio Coding 3
Codec ID : A_AC3
Duration : 2h 19mn
Bit rate mode : Constant
Bit rate : 192 Kbps
Channel(s) : 2 channels
Channel positions : L R
Sampling rate : 48.0 KHz
Stream size : 191 MiB (5%)
Title : AC3; 192 Kbps; CBR; 2 ch; Гаврилов
Language : Russian

Audio #3
ID : 4
Format : AC-3
Format/Info : Audio Coding 3
Codec ID : A_AC3
Duration : 2h 19mn
Bit rate mode : Constant
Bit rate : 640 Kbps
Channel(s) : 6 channels
Channel positions : Front: L C R, Surround: L R, LFE
Sampling rate : 48.0 KHz
Stream size : 638 MiB (16%)
Title : AC3; 640 Kbps; CBR; 6 ch; Original
Language : English
&n
3afc29e3e8f836566959cf6d0610091634bc1366Роб Рой / Rob Roy (Майкл Кейтон-Джонс, боевик, драма, мелодрама, 1995) [BDRip-AVC, Профессиональный (многоголосый, закадровый) + Авторский одноголосый (А. Гаврилов) + Оригинал (Английский) + Sub] Роб Рой / Rob Roy (Майкл Кейтон-Джонс, боевик, драма, мелодрама, 1995) [BDRip-AVC, Профессиональный (многоголосый, закадровый) + Авторский одноголосый (А. Гаврилов) + Оригинал (Английский) + Sub] " />

Аплоадер: Админ, дата: 13-01-2013, 20:47, торрент скачан: 359 раз

Понравилась раздача? Посмотрите эти:
  • Роб Рой / Rob Roy (Майкл Кейтон-Джонс, боевик, приключения, биография, 1995 ...
  • Бессмертные / The Immortals (Брайан Грант, драма, мелодрама, комедия, крими ...
  • Честь дракона / Tom yum goong (Прачья Пинкаю, боевик, триллер, драма, крим ...
  • Ордер на смерть / Death warrant (Деран Сарафян, Боевик, драма, криминал, де ...
  • Водитель / The Driver (Уолтер Хилл, Боевик, триллер, драма, криминал, 1978) ...
  • Солдат Джейн / G.I. Jane (Ридли Скотт, боевик, драма, 1997) [BDRip-AVC, Про ...
  • Цельнометаллическая оболочка / Full Metal Jacket (Стэнли Кубрик, драма, вое ...
  • Дитя человеческое / Children of Men (Альфонсо Куарон, фантастика, триллер, ...
  • Джона Хекс / Jonah Hex (Джимми Хейуорд, боевик, триллер, драма, вестерн, 20 ...
  • Вальгалла: Сага о викинге / Valhalla Rising (Николас Виндинг Рёфн, боевик, ...
  • Мертвец / Dead Man (Джим Джармуш, фэнтези, драма, вестерн, 1995) [BDRip-AVC ...
  • Пришелец / Impostor (Гэри Фледер, фантастика, боевик, триллер, драма, 2001) ...
  • Повторяющие / Repeaters (Карл Бессай, фантастика, боевик, триллер, драма, к ...
  • Охота за "Красным Октябрём" / The Hunt for "Red October" (Джон МакТирнан, б ...
  • Красавчик Джонни / Johnny Handsome (Уолтер Хилл, Триллер, драма, криминал, ...
  • Схватка / Heat (Майкл Манн, боевик, триллер, драма, криминал, 1995) [BDRip ...
  • Дым / Smoke (Уэйн Ван, Пол Остер, Драма, Комедия, 1995) [BDRip 1080р, Профе ...
  • Такси 2 / Taxi 2 (Жерар Кравчик, боевик, комедия, криминал, 2000) [BDRip 72 ...
  • Лучший стрелок / Top Gun (Тони Скотт, Боевик, мелодрама, 1986) [BDRip 1080p ...
  • Зелёная миля / The Green Mile (Фрэнк Дарабонт , драма, 1999) [BDRip 1080p, ...
  • Слова / The Words [EXTENDED] (Ли Стернтал, Драма, мелодрама, 2012) [BDRip 7 ...
  • Викинги / Outlander (Ховард МакКейн, Фантастика, боевик, приключения, 2008) ...
  • Роб Рой / Rob Roy (Майкл Кейтон-Джонс, боевик, драма, мелодрама, 1995) [НDR ...
  • Роб Рой / Rob Roy (Майкл Кейтон-Джонс, боевик, драма, мелодрама, военный, б ...
  • Роб Рой / Rob Roy (Майкл Кейтон-Джонс, боевик, драма, мелодрама, военный, б ...
  • Информация
    Посетители, находящиеся в группе Гости, не могут оставлять комментарии к данной публикации.