вход на сайт

Имя пользователя :
Пароль :

Восстановление пароля Регистрация
Пожарный пес / Firehouse Dog (Тодд Холлэнд / Todd Holland, боевик, комедия, семейный, 2007) [DVDRip-AVC, Профессиональный (многоголосый, закадровый) + Оригинал (английский) + Sub (русский, английский)]
Рейтинг:
(голосов: 1)



[img]{THEME}/images/logopost.png[/img]



Пожарный пес / Firehouse Dog

Год выпуска: 2007
Страна: США, Канада
Производство: C.O.R.E. Digital Pictures, Doghouse Productions, New Regency Pictures, Regency Enterprises
Жанр: боевик, комедия, семейный

Режиссёр: Тодд Холлэнд / Todd Holland
В ролях: Джош Хатчерсон, Брюс Гринвуд, Билл Нанн, Скотч Эллис Лоринг, Мейте Гарсиа, Тедди Сирс, Арвен, Frodo, Роэн, Снайдер...

Перевод: Профессиональный (многоголосый, закадровый) + Оригинал (английский)
Субтитры: русский, английский (SoftSub (srt))

Описание: Пес Рекс снимается в кино и рекламе, обладает уникальной прыгучестью, носит ошейник с бриллиантами, к его услугам — целый собачий гарем. Словом, живет псина, как и положено звезде Голливуда. Однако вся эта сладкая жизнь внезапно сменяется тяготами и лишениями: во время съемок рекламного ролика Рекс, по недосмотру безответственного персонала, пропадает.
Он бродит по улицам города, для жителей которого пес-звезда ничем не отличается от прочих бродячих собак. В конце концов, Рексу удается найти пристанище на обветшалой пожарной станции и подружиться с 12-летним Шейном.
Качество:DVDRip-AVC
Продолжительность: 01:46:39

Формат: MKV
Видео кодек: AVC
Аудио кодек: Audio Coding 3
Видео: 720x548 @ 1024x548 (1.85:1), 25.000 fps, H264 ~ 2036 kbps avg, 0.206 bit/pixel
Аудио #1: 48 kHz, Audio Coding 3, 6 ch, 448 Kbps/avg |MVO|
Аудио #2: 48 kHz, Audio Coding 3, 6 ch, 448 Kbps/avg |Оригинал (английский)|
"MediaInfo" ▼TextОбщее
Полное имя : Pozharniy.pes.2007.P.DVDRip-AVC.mkv
Формат : Matroska
Версия формата : Version 4 / Version 2
Размер файла : 2,19 Гбайт
Продолжительность : 1 ч. 46 м.
Общий поток : 2933 Кбит/сек
Дата кодирования : UTC 2010-02-22 21:41:31
Программа кодирования : mkvmerge v5.9.0 (On The Loose) built on Dec 9 2012 15:37:01
Библиотека кодирования : libebml v1.3.0 + libmatroska v1.4.0
Видео
Идентификатор : 1
Формат : AVC
Формат/Информация : Advanced Video Codec
Профиль формата : [email protected]
Параметр CABAC формата : Да
Параметр ReFrames формата : 11 кадров
Идентификатор кодека : V_MPEG4/ISO/AVC
Продолжительность : 1 ч. 46 м.
Битрейт : 2036 Кбит/сек
Ширина : 720 пикселей
Высота : 548 пикселей
Соотношение сторон : 1,85:1
Соотношение сторон в оригинале : 1,85:1
Частота кадров : 25,000 кадров/сек
Цветовое пространство : YUV
Субдискретизация насыщенности : 4:2:0
Битовая глубина : 8 бит
Тип развёртки : Прогрессивная
Бит/(Пиксели*Кадры) : 0.206
Размер потока : 1,47 Гбайт (67%)
Библиотека кодирования : x264 core 119 r2106 07efeb4
Настройки программы : cabac=1 / ref=11 / deblock=1:-2:-1 / analyse=0x3:0x113 / me=umh / subme=9 / psy=1 / psy_rd=1.00:0.20 / mixed_ref=1 / me_range=32 / chroma_me=1 / trellis=1 / 8x8dct=1 / cqm=0 / deadzone=21,11 / fast_pskip=0 / chroma_qp_offset=-3 / threads=9 / sliced_threads=0 / nr=0 / decimate=0 / interlaced=0 / bluray_compat=0 / constrained_intra=0 / bframes=8 / b_pyramid=2 / b_adapt=2 / b_bias=0 / direct=3 / weightb=1 / open_gop=0 / weightp=2 / keyint=250 / keyint_min=25 / scenecut=40 / intra_refresh=0 / rc_lookahead=60 / rc=2pass / mbtree=1 / bitrate=2036 / ratetol=1.0 / qcomp=0.60 / qpmin=0 / qpmax=69 / qpstep=4 / cplxblur=20.0 / qblur=0.5 / ip_ratio=1.40 / aq=1:1.00
Язык : English
Default : Да
Forced : Нет
Аудио #1
Идентификатор : 2
Формат : AC-3
Формат/Информация : Audio Coding 3
Расширение режима : CM (complete main)
Параметр Endianness формата : Big
Идентификатор кодека : A_AC3
Продолжительность : 1 ч. 46 м.
Вид битрейта : Постоянный
Битрейт : 448 Кбит/сек
Каналы : 6 каналов
Расположение каналов : Front: L C R, Side: L R, LFE
Частота : 48,0 КГц
Битовая глубина : 16 бит
Метод сжатия : С потерями
Размер потока : 342 Мбайт (15%)
Язык : Russian
Default : Да
Forced : Нет
Аудио #2
Идентификатор : 3
Формат : AC-3
Формат/Информация : Audio Coding 3
Расширение режима : CM (complete main)
Параметр Endianness формата : Big
Идентификатор кодека : A_AC3
Продолжительность : 1 ч. 46 м.
Вид битрейта : Постоянный
Битрейт : 448 Кбит/сек
Каналы : 6 каналов
Расп
64cc42746d678664b51a1df0593172902fc5522bПожарный пес / Firehouse Dog (Тодд Холлэнд / Todd Holland, боевик, комедия, семейный, 2007) [DVDRip-AVC, Профессиональный (многоголосый, закадровый) + Оригинал (английский) + Sub (русский, английский)] Пожарный пес / Firehouse Dog (Тодд Холлэнд / Todd Holland, боевик, комедия, семейный, 2007) [DVDRip-AVC, Профессиональный (многоголосый, закадровый) + Оригинал (английский) + Sub (русский, английский)] " />

Аплоадер: Админ, дата: 11-01-2013, 19:14, торрент скачан: 359 раз

Понравилась раздача? Посмотрите эти:
  • Мэрайа Мунди и шкатулка Мидаса / The Adventurer: The Curse of the Midas Box ...
  • Погнали! / Getaway (Кортни Соломон, боевик, криминал, 2013) [BDRip 1080p, П ...
  • Погнали! / Getaway (Кортни Соломон, боевик, криминал, 2013) [BDRip-AVC, Про ...
  • Мальчишник: Часть III / The Hangover Part III (Тодд Филлипс, комедия, 2013) ...
  • Филадельфия / Philadelphia (Джонатан Демме, Драма, 1993) [BDRip-AVC, Профес ...
  • Летучий отряд Скотланд-Ярда / The Sweeney (Ник Лав, Боевик, драма, криминал ...
  • Залив / The Bay (Барри Левинсон, Ужасы, фантастика, триллер, 2012) [BDRip-A ...
  • Порочные игры / Stoker (Пак Чхан Ук, Триллер, драма, детектив, 2013) [BDRip ...
  • Порочные игры / Stoker (Пак Чхан Ук, Триллер, драма, детектив, 2013) [BDRip ...
  • Голливудский мусор / Garbage (Филипп Волкен, драма, комедия, 2013) [HDTVRip ...
  • Рикошет / Ricochet (Ник Гомез, драма, детектив, 2011) [BDRip-AVC, Профессио ...
  • Оставайся Голодным / Stay Hungry (Боб Рейфелсон, драма, комедия, 1976) [HDT ...
  • Ангелы Чарли / Charlies Angels (МакДжи, Боевик, триллер, комедия, криминал, ...
  • Бульвар спасения / Salvation Boulevard (Джордж Рэтлифф, боевик, триллер, др ...
  • Неуязвимая мишень / Naam yi boon sik (Бенни Чан, Боевик, криминал, 2007) [B ...
  • Подземелье драконов / Dungeons & Dragons (Кортни Соломон, Фэнтези, боевик, ...
  • Толстяк на ринге / Here Comes the Boom (Фрэнк Корачи, Боевик, комедия, 2012 ...
  • Суррогат / The Sessions (Бен Луин, Драма, 2012) [BDRip-AVC, Профессиональны ...
  • Убойное Рождество Гарольда и Кумара / A Very Harold & Kumar Christmas (Тодд ...
  • Дневник слабака 3 / Diary of a Wimpy Kid: Dog Days (Дэвид Бауэрс, Комедия, ...
  • Эд Вуд / Ed Wood (Тим Бёртон, драма, комедия, биография, 1994) [BDRip-AVC, ...
  • Помогите Стать Отцом / Not Suitable For Children (Питер Темплмен, Мелодрама ...
  • Пожарный пес / Firehouse Dog (Тодд Холлэнд / Todd Holland, боевик, комедия, ...
  • Нико 2 / Niko 2: Lentajaveljekset (Кари Юуусонен, Юрген Лердам, Мультфильм, ...
  • Сейчас самое время / Now Is Good (Ол Паркер, Мелодрама, 2012) [BDRip-AVC, П ...
  • Информация
    Посетители, находящиеся в группе Гости, не могут оставлять комментарии к данной публикации.