вход на сайт

Имя пользователя :
Пароль :

Восстановление пароля Регистрация
Закон доблести / Act of Valor (Майк МакКой, Скотт Во, боевик, триллер, приключения, военный, 2012) [BDRip-AVC, Дублированный + Оригинал + SUB]
Рейтинг:
(голосов: 1)



[img]{THEME}/images/logopost.png[/img]



Закон доблести / Act of Valor
«Последний легкий день был вчера»

Год выпуска: 2012
Страна: США
Производство: Bandito Brothers
Жанр: боевик, триллер, приключения, военный

Режиссёр: Майк МакКой, Скотт Во
В ролях: Джейсон Коттл, Нестор Серрано, Айлса Маршалл, Гонсало Менендес, Эмилио Ривера, Димитар Маринов, Томас Розалес мл., Марк Маргулис, Дэн Сауфуорф, Андреа Кастро и др.

Перевод: Профессиональный (полное дублирование), Оригинал (английский)
Субтитры: softsub (SRT) | русские

Описание: История о нелегких буднях элитной группы «морские котики», которым поручено вытащить из плена агентов ЦРУ. Выполняя задание, бойцы попутно уничтожают террористическую группу, в планы которой входила масштабная атака на США.



Качество: BDRip-AVC | исх. Закон доблести / Act of Valor.BDRemux 1080p
Продолжительность: 01:49:29 час.

Автор рипа: undre19

Формат: MKV
Видео кодек: x264
Аудио кодек: АС3
Видео: 1024x576 (16:9), 23.976 fps, H.264 ~2 909 kbps avg 0.206 bit/pixel
Аудио#1: 48 kHz, АС3, 3/2 (L,C,R,l,r) + LFE ch, ~448.00 kbps avg- (Профессиональный (полное дублирование)
Аудио#2: 48 kHz, АС3, 3/2 (L,C,R,l,r) + LFE ch, ~448.00 kbps avg - (Оригинал) - Английский

Дата премьеры (мир): 7 февраля 2012
Дата премьеры (РФ): 12 апреля 2012, «Парадиз»

MediaInfo ▼General
Unique ID : 254963743333396432887755471000465365248 (0xBFD03B15D513C99CAC45D96C8A54D900)
Complete name : F:FILMS___ - R - ___Act of Valor.mkv
Format : Matroska
Format version : Version 2
File size : 2.90 GiB
Duration : 1h 49mn
Overall bit rate : 3 795 Kbps
Encoded date : UTC 2013-01-01 11:25:55
Writing application : mkvmerge v5.6.0 (Kenya Kane) built on May 27 2012 16:44:04
Writing library : libebml v1.2.3 + libmatroska v1.3.0
Video
ID : 1
Format : AVC
Format/Info : Advanced Video Codec
Format profile : [email protected]
Format settings, CABAC : Yes
Format settings, ReFrames : 14 frames
Codec ID : V_MPEG4/ISO/AVC
Duration : 1h 49mn
Bit rate : 2 909 Kbps
Width : 1 024 pixels
Height : 576 pixels
Display aspect ratio : 16:9
Frame rate mode : Constant
Frame rate : 23.976 fps
Color space : YUV
Chroma subsampling : 4:2:0
Bit depth : 8 bits
Scan type : Progressive
Bits/(Pixel*Frame) : 0.206
Stream size : 2.16 GiB (74%)
Title : AVC [email protected] fps ~2909 kBit/s 2-pass High 4.1 16:9
Writing library : x264 core 125 r2200bm 999b753
Encoding settings : cabac=1 / ref=14 / deblock=1:-2:-2 / analyse=0x3:0x133 / me=umh / subme=10 / psy=1 / psy_rd=1.00:0.10 / mixed_ref=1 / me_range=48 / chroma_me=1 / trellis=2 / 8x8dct=1 / cqm=0 / deadzone=21,11 / fast_pskip=0 / chroma_qp_offset=-3 / threads=6 / lookahead_threads=1 / sliced_threads=0 / nr=0 / decimate=1 / interlaced=0 / bluray_compat=0 / constrained_intra=0 / bframes=12 / b_pyramid=2 / b_adapt=2 / b_bias=0 / direct=3 / weightb=1 / open_gop=0 / weightp=2 / keyint=250 / keyint_min=23 / scenecut=40 / intra_refresh=0 / rc=2pass / mbtree=0 / bitrate=2909 / ratetol=1.0 / qcomp=0.90 / qpmin=0 / qpmax=69 / qpstep=4 / cplxblur=50.0 / qblur=0.5 / ip_ratio=1.25 / pb_ratio=1.50 / aq=2:1.10
Language : English
Default : Yes
Forced : No
Audio #1
ID : 2
Format : AC-3
Format/Info : Audio Coding 3
Mode extension : CM (complete main)
Format settings, Endianness : Big
Codec ID : A_AC3
Duration : 1h 49mn
Bit rate mode : Constant
Bit rate : 448 Kbps
Channel(s) : 6 channels
Channel positions : Front: L C R, Side: L R, LFE
Sampling rate : 48.0 KHz
Bit depth : 16 bits
Compression mode : Lossy
Stream size : 351 MiB (12%)
Title : Дубляж AC3 448 kBit/s 48 kHz 5.1 DD
Language : Russian
Default : Yes
Forced : No
Audio #2
ID : 3
Format : AC-3
Format/Info : Audio Coding 3
Mode extension : CM (complete main)
Format settings, Endianness : Big
Codec ID : A_AC3
Duration : 1h 49mn
Bit rate mode : Constant
Bit rate : 448 Kbps
Channel(s) : 6 channels
Channel positions : Front: L C R, Side: L R, LFE
Sampling rate : 48.0 KHz
Bit depth : 16 bits
Compression mode : Lossy
Stream size : 351 MiB (12%)
Ti
5fa18bb66098dc36e6b17b72f59d03cfe3f9e681Закон доблести / Act of Valor (Майк МакКой, Скотт Во, боевик, триллер, приключения, военный, 2012) [BDRip-AVC, Дублированный + Оригинал + SUB] Закон доблести / Act of Valor (Майк МакКой, Скотт Во, боевик, триллер, приключения, военный, 2012) [BDRip-AVC, Дублированный + Оригинал + SUB] " />

Аплоадер: Админ, дата: 2-01-2013, 01:22, торрент скачан: 359 раз

Понравилась раздача? Посмотрите эти:
  • Пастырь / Priest (Скотт Чарльз Стюарт, ужасы, фантастика, боевик, триллер, ...
  • Хроника / Chronicle (Джошуа Транк, фантастика, боевик, триллер, драма, 2012 ...
  • Погоня / Abduction (Джон Синглтон, боевик, триллер, драма, детектив, 2011) ...
  • Соучастник / Collateral (Майкл Манн, Триллер, драма, криминал, 2004) [BDRip ...
  • Закон доблести / Act of Valor (Майк МакКой, Скотт Во, боевик, триллер, прик ...
  • Жизнь Пи / Life Of Pi (Энг Ли, Драма, приключения, 2012) [BDRip 1080p, Проф ...
  • Голодный кролик атакует / Seeking Justice (Роджер Дональдсон / Roger Donald ...
  • Репортаж из преисподней / [REC] 2 (Жауме Балагуэро, Пако Пласа, ужасы, трил ...
  • Закон доблести / Act of Valor (Майк МакКой, Скотт Во, боевик, триллер, прик ...
  • Закон доблести / Act of Valor (Майк МакКой, Скотт Во, боевик, триллер, прик ...
  • Закон доблести / Act of Valor (Майк МакКой, Скотт Во, боевик, триллер, прик ...
  • Робин Гуд [Режиссёрская версия] / Robin Hood [Directors Cut] (Ридли Скотт / ...
  • Закон доблести / Act of Valor (Майк МакКой, Скотт Во, боевик, 2012) [HDRip- ...
  • Центурион / Centurion (Нил Маршалл / Neil Marshall, Боевик, триллер, драма, ...
  • Патруль / End of Watch (Дэвид Эйр, Триллер, драма, криминал, 2012) [BDRip-A ...
  • Одиночка / A Man Apart (Ф. Гэри Грей, боевик, триллер, драма, криминал, 200 ...
  • Коллекционер 2 / The Collection (Маркус Данстэн, ужасы, боевик, триллер , 2 ...
  • Закон доблести / Act of Valor (Майк МакКой, Скотт Во, Крис Миллер, Боевик, ...
  • Закон доблести / Act of Valor (Майк МакКой, Скотт Во, боевик, триллер, прик ...
  • Мачо и ботан / 21 Jump Street (Фил Лорд, Крис Миллер, боевик, комедия, 2012 ...
  • «Весёлые» каникулы / Get the Gringo (Адриан Грюнберг, Боевик, комедия, 2012 ...
  • Ворон / The Raven (Джеймс МакТиг, Триллер, детектив, 2012) [BDRip 720p, Дуб ...
  • Закон доблести / Act of Valor (Майк МакКой, Скотт Во, боевик, триллер, прик ...
  • Закон доблести / Act of Valor (Майк МакКой, Скотт Во, боевик, триллер, прик ...
  • Закон доблести / Act of Valor (Майк МакКой, Скотт Во, боевик, триллер, прик ...
  • Информация
    Посетители, находящиеся в группе Гости, не могут оставлять комментарии к данной публикации.