вход на сайт

Имя пользователя :
Пароль :

Восстановление пароля Регистрация
Кредо убийцы: Происхождение / Assassins Creed: Lineage (Ив Симоно, Короткометражка, боевик, приключения, 2009) [SATRip, Профессиональный (многоголосый, закадровый)]
Рейтинг:
(голосов: 1)



[img]{THEME}/images/logopost.png[/img]



♠ Кредо убийцы: Происхождение / Assassins Creed: Lineage ♠
« Assassins Creed 2 movie »



♠Год выпуска: 2009
♠Страна: Франция Канада
♠Производство: Ubisoft Digital Art
♠Жанр: Короткометражка, боевик, приключения
♠Режиссёр: Ив Симоно
♠В ролях: Романо Орзари, Мануель Тадрос, Джис Раз, Девон Бостик, Клаудиа Ферри, Алекс Ивановичи, Мишель Перон, Рос Лафрон, Артур Гроссер, Шавн Биашу, Петер Миллер, Харри Стандофски, Френк Фонтайн, Максим Саварива и другие.
♠Перевод: Профессиональный (многоголосый, закадровый)
♠Субтитры: Отсутствует



♠Описание ▼ Приквел (Предистория) компьютерной игры Assassins Creed 2. Действие короткометражного фильма канадской студии Hybride Technologies, в которой снимались реальные актеры и использовались современные спецэффекты, развивается перед самым началом основной сюжетной линии игры.1476 год. Восход новой эпохи для Италии. Искусство, культура и наука расцветают под руководством вдохновлённых умов. Возрождение. Видимо, такими нас запомнит история. Но в тени, вдали от золота и знаний, сокрыта другая правда. Коррупция. Предательство. Убийство. Тайны. Тайны настолько опасные, что я вынужден скрывать их даже от собственной семьи. Семья, правосудие, честь – эти ценности направляют мой клинок. Эта правда написана кровью, и свой удар я наношу из тени. Я Джованни Аудитори, и, как и мои предки до меня, я – ассасин.

♠Рейтинг:

♠Доп. информация: Данная раздача не является повтором так как в пере ведущим нет раздающих иявная отстает по оформлению и качество тут SATRip
♠Качество: SATRip
♠Продолжительность: 00:37:17 час.

♠Формат: AVI
♠Видео кодек: DivX
♠Аудио кодек: MPEG-3
♠Видео: DivX Codec 5.x or 6.x, 720x400,4:2:0, 1301 kbps avg, 29,970 fps, 0.151 bit/pixel
♠Аудио: MPEG Layer 3, 48 kHz, 256.00 kbps avg

♠Премьера(мир): 26 октября 2009


MediaInfo ▼
Text
Общее
Полное имя : D:Assassins_Creed_2_movie.avi
Формат : DivX
Формат/Информация : Hack of AVI
Размер файла : 419 Мбайт
Продолжительность : 37 м.
Общий поток : 1569 Кбит/сек

Видео
Идентификатор : 0
Формат : MPEG-4 Visual
Параметр BVOP формата : 1
Параметр QPel формата : Нет
Параметр GMC формата : Без точки перехода
Параметр матрицы формата : Default (H.263)
Режим смешивания : Сжатый битовый поток
Идентификатор кодека : DX50
Идентификатор кодека/Подсказка : DivX 5
Продолжительность : 37 м.
Битрейт : 1301 Кбит/сек
Ширина : 720 пикселей
Высота : 400 пикселей
Соотношение сторон : 16:9
Частота кадров : 29,970 кадров/сек
Цветовое пространство : YUV
Субдискретизация насыщенности : 4:2:0
Битовая глубина : 8 бит
Тип развёртки : Прогрессивная
Метод сжатия : С потерями
Бит/(Пиксели*Кадры) : 0.151
Размер потока : 348 Мбайт (83%)
Заголовок : Main
Библиотека кодирования : DivX 6.8.5 (UTC 2009-08-20)

Аудио
Идентификатор : 1
Формат : MPEG Audio
Версия формата : Version 1
Профиль формата : Layer 3
Режим : Joint stereo
Расширение режима : MS Stereo
Идентификатор кодека : 55
Идентификатор кодека/Подсказка : MP3
Продолжительность : 37 м.
Вид битрейта : Постоянный
Битрейт : 256 Кбит/сек
Каналы : 2 канала
Частота : 48,0 КГц
Метод сжатия : С потерями
Размер потока : 68,4 Мбайт (16%)
Выравнивание : Разделение по промежуткам
Продолжительность промежутка : 33 мс. (1,00 видеокадр)
Время предзагрузки промежутка : 500 мс.
Заголовок : Audio
Библиотека кодирования : LAME3.97

9780a36771e9e659a7fff35e08710038750beeb8Кредо убийцы: Происхождение / Assassins Creed: Lineage (Ив Симоно, Короткометражка, боевик, приключения, 2009) [SATRip, Профессиональный (многоголосый, закадровый)] Кредо убийцы: Происхождение / Assassins Creed: Lineage (Ив Симоно, Короткометражка, боевик, приключения, 2009) [SATRip, Профессиональный (многоголосый, закадровый)] " />

Аплоадер: Админ, дата: 18-12-2012, 16:05, торрент скачан: 359 раз

Понравилась раздача? Посмотрите эти:
  • Слежка / The Letter (Джей Ананья, Триллер, драма, 2012) [DVDRip, Профессион ...
  • Человек без головы / Lhomme sans tête (Хуан Диего Соланас, Короткометражка, ...
  • Кредо убийцы: Угли / Assassins Creed: Embers (Лорен Бернье, Приключения, му ...
  • Злые птицы: Хэллоуин / Angry Birds: HamOWeen (Джей Ройвайнен, Мультфильм, к ...
  • Киддо - супергрузовичок / Kiddo The Super Truck (Д. Нэйр, Мультфильм, 2002) ...
  • Кредо Убийцы: Происхождение / Assassins Creed: Lineage (Ив Симоно, приключе ...
  • Кредо убийцы: Господство / Assassins Creed: Ascendance (Лоран Бернье, прикл ...
  • Вечерний Ургант // Сезон 2. Выпуск 56 (ТВ-шоу, 11.12.2012) [SATRip, Не треб ...
  • Бог любви / God of Love (Люк Мэзени, Короткометражка, фэнтези, комедия, мел ...
  • Вечерний Ургант // Сезон 2. Выпуск 62 (ТВ-шоу, 19.12.2012) [SATRip, Не треб ...
  • Вечерний Ургант // Сезон 2. Выпуск 63 (ТВ-шоу, 20.12.2012) [SATRip, Не треб ...
  • Кейси Джонс / Casey Jones (Иларион Бэнкс, Короткометражка, фэнтези, боевик, ...
  • Заместитель / Il supplente (Андреа Жублин, Короткометражка, комедия, 2007) ...
  • Вечерний Ургант // Сезон 2. Выпуск 64 (ТВ-шоу, 21.12.2012) [SATRip, Не треб ...
  • Вечерний Ургант // Сезон 2. Выпуск 66 (ТВ-шоу, 25.12.2012) [SATRip, Не треб ...
  • Вечерний Ургант // Сезон 2. Выпуск 68 (ТВ-шоу, 27.12.2012) [SATRip, Не треб ...
  • Дорога на... / Road to (Таисия Игуменцева, Комедия, короткометражный, 2011) ...
  • Покорить высоту / Take It to the Limit (Сэм Кит / Sam Kieth, семейный, 2000 ...
  • Светлячок. Воссоединение Коричневых плащей к 10 годовщине / Firefly 10th An ...
  • Боец из трущоб / Gutter King (Кейт Алан Моррис / Keith Alan Morris, боевик, ...
  • Отдам котят в хорошие руки (Александр Баршак, комедия, 2012)[SATRip, не тре ...
  • В лесу / The Forest (Шан Серафин, ужасы, триллер , 2011) [SATRip, Профессио ...
  • Pitbull / Bon Bon [2010, Pop, HDRip]
  • Развод по-русски. Выпуск №78. Трагедии звездных семей (Документальный,телеп ...
  • Бюро находок : Потерянный и найденный / Lost and Found (Филип Хант, коротко ...
  • Информация
    Посетители, находящиеся в группе Гости, не могут оставлять комментарии к данной публикации.