вход на сайт

Имя пользователя :
Пароль :

Восстановление пароля Регистрация
Одиночка / A Man Apart (Ф. Гэри Грей, боевик, триллер, драма, криминал, 2003) [BDRip-AVC, Дублированный + Оригинал + SUB]
Рейтинг:
(голосов: 1)



[img]{THEME}/images/logopost.png[/img]



Одиночка / A Man Apart
«Nothing left to live for......everything to fight for»

Год выпуска: 2003
Страна: США, Германия
Производство: "DIA" Productions GmbH & Co. KG, Joseph Nittolo Entertainment, New Line Cinema, Newman/Tooley Films
Жанр: боевик, триллер, драма, криминал

Режиссёр: Ф. Гэри Грей
В ролях: Вин Дизель, Лоренц Тейт, Тимоти Олифант, Джино Сильва, Жаклин Обрадорс, Стив Истин, Хуан Фернандес, Джефф Кобер, Марко Родригес, Майк Морофф

Перевод: Профессиональный (полное дублирование), Оригинал (английский)
Субтитры: softsub (SRT) | русские, английские

Описание: Вин Дизель в роли агента Шона Веттера, оперативника, борющегося с контрабандой наркотиков из Мексики. После того, как глава наркокартели был заключен в тюрьму, появляется новый таинственный персонаж, известный как Дьябло, который берет в свои руки контроль над всем трафиком.

Когда в ходе проваленной операции убивают жену Веттера, он и его коллега должны внедриться в преступный картель, чтобы вычислить неуловимого Дьябло.



Качество: BDRip-AVC | исх. BDRemux 1080p 2.35:1 AVC ~19.4 MBit/s
Продолжительность: 01:49:36 час.

Автор рипа: undre19

Формат: MKV
Видео кодек: x264
Аудио кодек: АС3
Видео: 1136x480 (2.35:1), 23.976 fps, x264 ~2 970 kbps avg 0.227 bit/pixel
Аудио#1: 48 kHz, АС3, 3/2 (L,C,R,l,r) + LFE ch, ~384.00 kbps avg- (Профессиональный (полное дублирование)
Аудио#2: 48 kHz, АС3, 3/2 (L,C,R,l,r) + LFE ch, ~448.00 kbps avg - (Оригинал) - Английский

Дата премьеры (мир): 4 апреля 2003
Дата премьеры (РФ): 17 июля 2003, «Каро-Премьер»

MediaInfo ▼General
Unique ID : 254066460622798213936797055033572398034 (0xBF236BA1CFA9E967A5B077E94D4513D2)
Complete name : F:FILMS___ - R - ___A Man Apart.mkv
Format : Matroska
Format version : Version 2
File size : 2.91 GiB
Duration : 1h 49mn
Overall bit rate : 3 800 Kbps
Encoded date : UTC 2012-12-16 18:12:59
Writing application : mkvmerge v5.6.0 (Kenya Kane) built on May 27 2012 16:44:04
Writing library : libebml v1.2.3 + libmatroska v1.3.0
Video
ID : 1
Format : AVC
Format/Info : Advanced Video Codec
Format profile : [email protected]
Format settings, CABAC : Yes
Format settings, ReFrames : 15 frames
Codec ID : V_MPEG4/ISO/AVC
Duration : 1h 49mn
Bit rate : 2 970 Kbps
Width : 1 136 pixels
Height : 480 pixels
Display aspect ratio : 2.35:1
Frame rate mode : Constant
Frame rate : 23.976 fps
Color space : YUV
Chroma subsampling : 4:2:0
Bit depth : 8 bits
Scan type : Progressive
Bits/(Pixel*Frame) : 0.227
Stream size : 2.21 GiB (76%)
Title : AVC [email protected] fps ~2970 kBit/s High 4.1 2-pass 2.35:1
Writing library : x264 core 122 r2184bm 5c85e0a
Encoding settings : cabac=1 / ref=15 / deblock=1:-1:-1 / analyse=0x3:0x133 / me=umh / subme=10 / psy=1 / psy_rd=1.00:0.05 / mixed_ref=1 / me_range=48 / chroma_me=1 / trellis=2 / 8x8dct=1 / cqm=0 / deadzone=21,11 / fast_pskip=0 / chroma_qp_offset=-3 / threads=6 / sliced_threads=0 / nr=0 / decimate=0 / interlaced=0 / bluray_compat=0 / constrained_intra=0 / bframes=12 / b_pyramid=2 / b_adapt=2 / b_bias=0 / direct=3 / weightb=1 / open_gop=0 / weightp=2 / keyint=250 / keyint_min=23 / scenecut=40 / intra_refresh=0 / rc=2pass / mbtree=0 / bitrate=2970 / ratetol=1.0 / qcomp=0.90 / qpmin=0 / qpmax=69 / qpstep=4 / cplxblur=20.0 / qblur=0.5 / ip_ratio=1.40 / pb_ratio=1.35 / aq=2:0.90
Language : English
Default : Yes
Forced : No
Audio #1
ID : 2
Format : AC-3
Format/Info : Audio Coding 3
Mode extension : CM (complete main)
Format settings, Endianness : Big
Codec ID : A_AC3
Duration : 1h 49mn
Bit rate mode : Constant
Bit rate : 384 Kbps
Channel(s) : 6 channels
Channel positions : Front: L C R, Side: L R, LFE
Sampling rate : 48.0 KHz
Bit depth : 16 bits
Compression mode : Lossy
Stream size : 301 MiB (10%)
Title : Дубляж AC3 384 kBit/s 48 kHz 5.1 DD
Language : Russian
Default : Yes
Forced : No
Audio #2
ID : 3
Format : AC-3
Format/Info : A
9dee8b46ceffd5d1a46432d6566d6c5440d2ab6eОдиночка / A Man Apart (Ф. Гэри Грей, боевик, триллер, драма, криминал, 2003) [BDRip-AVC, Дублированный + Оригинал + SUB] Одиночка / A Man Apart (Ф. Гэри Грей, боевик, триллер, драма, криминал, 2003) [BDRip-AVC, Дублированный + Оригинал + SUB] " />

Аплоадер: Админ, дата: 18-12-2012, 02:33, торрент скачан: 359 раз

Понравилась раздача? Посмотрите эти:
  • Два ствола / 2 Guns (Бальтасар Кормакур, боевик, триллер, драма, комедия, к ...
  • Пастырь / Priest (Скотт Чарльз Стюарт, ужасы, фантастика, боевик, триллер, ...
  • Хроника / Chronicle (Джошуа Транк, фантастика, боевик, триллер, драма, 2012 ...
  • Погоня / Abduction (Джон Синглтон, боевик, триллер, драма, детектив, 2011) ...
  • Соучастник / Collateral (Майкл Манн, Триллер, драма, криминал, 2004) [BDRip ...
  • Черный дрозд / Deadfall (Штефан Руцовицки, Триллер, драма, криминал, 2012) ...
  • Профессионал / Killer Elite (Гэри МакКендри , боевик, триллер, криминал, 20 ...
  • Голодный кролик атакует / Seeking Justice (Роджер Дональдсон / Roger Donald ...
  • Репортаж из преисподней / [REC] 2 (Жауме Балагуэро, Пако Пласа, ужасы, трил ...
  • Одиночка / A Man Apart (Ф. Гэри Грей, боевик, 2003) [HDRip-AVC, Профессиона ...
  • Спаун / Отродие / Spawn (Марк Э. З. Диппе, фэнтези, боевик, триллер, 1997) ...
  • Пришелец / Impostor (Гэри Фледер, фантастика, боевик, триллер, драма, 2001) ...
  • Ромео должен умереть / Romeo Must Die (Анджей Бартковяк, Боевик, триллер, к ...
  • Патруль / End of Watch (Дэвид Эйр, Триллер, драма, криминал, 2012) [BDRip-A ...
  • Город воров [Театральная версия] / The Town [Theatrical cut] (Бен Аффлек, т ...
  • Закон доблести / Act of Valor (Майк МакКой, Скотт Во, боевик, триллер, прик ...
  • Коллекционер 2 / The Collection (Маркус Данстэн, ужасы, боевик, триллер , 2 ...
  • Профессионал / Killer Elite (Гэри МакКендри, Боевик, Триллер, Криминал, 201 ...
  • Мачо и ботан / 21 Jump Street (Фил Лорд, Крис Миллер, боевик, комедия, 2012 ...
  • Патруль / End of Watch (Дэвид Эйр, Триллер, драма, криминал, 2012) [BDRip 7 ...
  • Одиночка / A Man Apart (Ф. Гэри Грей, боевик, триллер, драма, криминал, 200 ...
  • Одиночка / A Man Apart (Ф. Гэри Грей / Вин Дизель, боевик, триллер, драма, ...
  • Одиночка / A Man Apart (Ф. Гэри Грей, Боевик, криминал, 2003) [HDRip, Профе ...
  • Профессионал / Killer Elite (Гэри МакКендри, боевик, триллер, криминал, 201 ...
  • Одиночка / A Man Apart (Ф. Гэри Грей, Боевик, Триллер, Драма, Криминал, 200 ...
  • Информация
    Посетители, находящиеся в группе Гости, не могут оставлять комментарии к данной публикации.