вход на сайт

Имя пользователя :
Пароль :

Восстановление пароля Регистрация
Я, Алекс Кросс / Alex Cross (Роб Коэн, Боевик, триллер, криминал, детектив, 2012) [BDRip-AVC, Дубляж]
Рейтинг:
(голосов: 1)



[img]{THEME}/images/logopost.png[/img]



Я, Алекс Кросс / Alex Cross
«Жестокое преступление. Извращенный убийца. Смертельная игра»


Год выпуска: 2012
Страна: США
Производство: Envision Entertainment Corporation, IAC Productions, James Patterson Entertainment, QED International
Жанр: Боевик, триллер, криминал, детектив

Режиссёр: Роб Коэн
В ролях: Тайлер Перри, Мэттью Фокс, Эдвард Бёрнс, Рэйчел Николс, Жан Рено, Кармен Эджого, Сисели Тайсон, Джон К. МакГинли, Джанкарло Эспозито, Чэд Линдберг

Перевод: Дубляж
Субтитры: Отсутствуют

Описание: Знаменитый детектив Алекс Кросс идет по следам серийного убийцы, и с удивлением обнаруживает, что почерк преступника соответствует манере действий безжалостного маньяка по прозвищу Мясник. Десять лет назад Кросс сорвал исполнение одного из его смертельных контрактов, за что Мясник убил беременную жену полицейского и бесследно исчез. Неужели он вернулся? Кросс вступает в смертельную игру.





Качество: BDRip-AVC|Сэмпл
Продолжительность:01:41:23 час.


Формат: MKV
Видео кодек: x264
Аудио кодек: AC3
Видео: 1024x576 (16:9), 24 fps, x264 ~1 662 kbps avg, 0.117 bit/pixel
Аудио: 48 kHz, AC3 Dolby Digital, 3/2 (L,C,R,l,r) + LFE ch, ~384 kbps - (Дубляж)

Дата премьеры (мир): 15 октября 2012
Дата премьеры (РФ): 18 октября 2012, «Парадиз»

MediaInfo ▼
Общее
Уникальный идентификатор : 232716633230121902108074288452288271266 (0xAF1397DF32CA82A98AF469A6F87E53A2)
Полное имя : D:Alex Cross.2012.BDRip-AVC.mkv
Формат : Matroska
Версия формата : Version 2
Размер файла : 1,45 Гбайт
Продолжительность : 1 ч. 41 м.
Общий поток : 2046 Кбит/сек
Дата кодирования : UTC 2012-12-08 15:38:46
Программа кодирования : mkvmerge v5.7.0 (The Whirlwind) built on Jul 8 2012 20:08:51
Библиотека кодирования : libebml v1.2.3 + libmatroska v1.3.0

Видео
Идентификатор : 1
Формат : AVC
Формат/Информация : Advanced Video Codec
Профиль формата : [email protected]
Параметр CABAC формата : Да
Параметр ReFrames формата : 10 кадров
Идентификатор кодека : V_MPEG4/ISO/AVC
Продолжительность : 1 ч. 41 м.
Битрейт : 1662 Кбит/сек
Ширина : 1024 пикселя
Высота : 576 пикселей
Соотношение сторон : 16:9
Частота кадров : 24,000 кадра/сек
Цветовое пространство : YUV
Субдискретизация насыщенности : 4:2:0
Битовая глубина : 8 бит
Тип развёртки : Прогрессивная
Бит/(Пиксели*Кадры) : 0.117
Размер потока : 1,15 Гбайт (79%)
Библиотека кодирования : x264 core 129 r2230 1cffe9f
Настройки программы : cabac=1 / ref=10 / deblock=1:-1:-1 / analyse=0x3:0x133 / me=umh / subme=9 / psy=1 / psy_rd=1.09:0.04 / mixed_ref=1 / me_range=32 / chroma_me=1 / trellis=2 / 8x8dct=1 / cqm=0 / deadzone=21,11 / fast_pskip=0 / chroma_qp_offset=-3 / threads=2 / lookahead_threads=1 / sliced_threads=0 / nr=0 / decimate=1 / interlaced=0 / bluray_compat=0 / constrained_intra=0 / bframes=5 / b_pyramid=2 / b_adapt=2 / b_bias=0 / direct=3 / weightb=1 / open_gop=0 / weightp=2 / keyint=240 / keyint_min=24 / scenecut=40 / intra_refresh=0 / rc_lookahead=40 / rc=2pass / mbtree=1 / bitrate=1662 / ratetol=1.0 / qcomp=0.60 / qpmin=10 / qpmax=51 / qpstep=4 / cplxblur=20.0 / qblur=0.5 / ip_ratio=1.40 / aq=2:1.00
Default : Да
Forced : Нет

Аудио
Идентификатор : 2
Формат : AC-3
Формат/Информация : Audio Coding 3
Расширение режима : CM (complete main)
Идентификатор кодека : A_AC3
Продолжительность : 1 ч. 41 м.
Вид битрейта : Постоянный
Битрейт : 384 Кбит/сек
Каналы : 6 каналов
Расположение каналов : Front: L C R, Side: L R, LFE
Частота : 48,0 КГц
Битовая глубина : 16 бит
Метод сжатия : С потерями
Размер потока : 278 Мбайт (19%)
Заголовок : Дублированный
Язык : Russian
Default : Да
Forced : Нет




cbef681763fc5b225c922960ea4822f0a947131aЯ, Алекс Кросс / Alex Cross (Роб Коэн, Боевик, триллер, криминал, детектив, 2012) [BDRip-AVC, Дубляж] Я, Алекс Кросс / Alex Cross (Роб Коэн, Боевик, триллер, криминал, детектив, 2012) [BDRip-AVC, Дубляж] " />

Аплоадер: Админ, дата: 9-12-2012, 02:58, торрент скачан: 359 раз

Понравилась раздача? Посмотрите эти:
  • Ворон / The Raven (Джеймс МакТиг, Триллер, детектив, 2012) [BDRip 1080p, Ду ...
  • Паркер / Parker (Тейлор Хэкфорд, Боевик, триллер, криминал, 2013) [BDRip-AV ...
  • Тихая гавань / Safe Haven (Лассе Халльстрём, Триллер, драма, мелодрама, дет ...
  • Ангелы Чарли / Charlies Angels (МакДжи, Боевик, триллер, комедия, криминал, ...
  • Джек Ричер / Jack Reacher (Кристофер МакКуорри, Боевик,триллер, криминал, д ...
  • Толстяк на ринге / Here Comes the Boom (Фрэнк Корачи, Боевик, комедия, 2012 ...
  • Подарок / Echelon Conspiracy (Грег Маркс, боевик, триллер, криминал, детект ...
  • Закон доблести / Act of Valor (Майк МакКой, Скотт Во, боевик, триллер, прик ...
  • Медальон / Stolen (Саймон Уэст, Боевик, триллер, 2012) [BDRip-AVC, Дубляж]
  • Неудержимые 2 / The Expendables 2 (Саймон Уэст, Боевик, триллер, 2012) [BDR ...
  • Цунами 3D / Bait (Кимбл Рендалл, ужасы, боевик, триллер, 2011) [BDRip-AVC, ...
  • Я, Алекс Кросс / Alex Cross (Роб Коэн, Боевик, триллер, криминал, детектив, ...
  • Я, Алекс Кросс / Alex Cross (Роб Коэн, Боевик, триллер, криминал, детектив, ...
  • Я, Алекс Кросс / Alex Cross (Роб Коэн, боевик, триллер, криминал, детектив, ...
  • Я, Алекс Кросс / Alex Cross (Роб Коэн, Боевик, триллер, криминал, детектив, ...
  • Я, Алекс Кросс / Alex Cross (Роб Коэн, Боевик, триллер, криминал, детектив, ...
  • Я, Алекс Кросс / Alex Cross (Роб Коэн, Боевик, триллер, криминал, детектив, ...
  • [EN] James Patterson. Alex Cross #1-18 / Джеймс Паттерсон. Серия "Алекс Кро ...
  • Я, Алекс Кросс / Alex Cross (Роб Коэн, Боевик, триллер, криминал, детектив, ...
  • Я, Алекс Кросс / Alex Cross (Роб Коэн, Боевик, триллер, криминал, детектив, ...
  • Я, Алекс Кросс / Alex Cross (Роб Коэн, Боевик, триллер, криминал, детектив, ...
  • Я, Алекс Кросс / Alex Cross (Роб Коэн, Боевик, триллер, криминал, детектив, ...
  • Я, Алекс Кросс / Alex Cross (Роб Коэн, Боевик, триллер, криминал, детектив, ...
  • [Phone, iPod] Я, Алекс Кросс / Alex Cross (Роб Коэн, боевик, триллер, крими ...
  • [Трейлер] Алекс Кросс / Alex Cross (Роб Коэн, триллер, криминал, детектив) ...
  • Информация
    Посетители, находящиеся в группе Гости, не могут оставлять комментарии к данной публикации.