вход на сайт

Имя пользователя :
Пароль :

Восстановление пароля Регистрация
Неудержимые 2 / The Expendables 2 (Саймон Уэст, Боевик, триллер, 2012) [BDRip-AVC, Дубляж]
Рейтинг:
(голосов: 1)



[img]{THEME}/images/logopost.png[/img]



Неудержимые 2 / The Expendables 2
«Они вернулись, чтобы зажечь»


Год выпуска: 2012
Страна: США
Производство: Millennium Films, Nu-Image Films
Жанр: Боевик, триллер

Режиссёр: Саймон Уэст
В ролях: Сильвестр Сталлоне, Джейсон Стэйтем, Дольф Лундгрен, Жан-Клод Ван Дамм, Терри Крюс, Арнольд Шварценеггер, Лиам Хемсворт, Нань Юй, Брюс Уиллис, Чак Норрис

Перевод: Дубляж
Субтитры: Отсутствуют

Описание: Можно ли попробовать изменить расстановку сил в мире? Да, если вы круты как Ван Дамм, у вас есть пять тонн плутония и первоклассные наемники. Стоит ли шутить с Уиллисом, когда вы ему серьезно задолжали? Нет, даже если вы опасны как Сталлоне и у вас за спиной Неудержимые.

Кого позвать на такое плевое дельце, как спасение мира? Пара проверенных ребят, Стэйтем и Норрис, явно не помешают. Пригодятся и малыш Хемсворт, и опасная красотка. Но команда будет неполной без Шварценеггера. Он реально вернулся! Все в сборе. Понеслась…



Качество: BDRip-AVC | Сэмпл
Продолжительность: 01:38:06 час.

Формат: MKV
Видео кодек: x264
Аудио кодек: AC3
Видео: 1024x428 (2,40:1), 25 fps, x264 ~1580 kbps avg, 0.150 bit/pixel
Аудио: 48 kHz, AC3 Dolby Digital, 3/2 (L,C,R,l,r) + LFE ch, ~448 kbps

Дата премьеры (мир): 8 августа 2012
Дата премьеры (РФ): 16 августа 2012, «UPI»

"MediaInfo" ▼Общее
Уникальный идентификатор : 239558622614979579055587038036748378438 (0xB4394FFE3B9A658999A61CD20F63A146)
Полное имя : D:Neuderzhimye.2.2012.BDRip-AVC.mkv
Формат : Matroska
Версия формата : Version 2
Размер файла : 1,45 Гбайт
Продолжительность : 1 ч. 42 м.
Общий поток : 2025 Кбит/сек
Название фильма : Неудержимые 2 / The Expendables 2
Дата кодирования : UTC 2012-10-06 03:01:13
Программа кодирования : mkvmerge v5.7.0 (The Whirlwind) built on Jul 8 2012 20:08:51
Библиотека кодирования : libebml v1.2.3 + libmatroska v1.3.0

Видео
Идентификатор : 1
Формат : AVC
Формат/Информация : Advanced Video Codec
Профиль формата : [email protected]
Параметр CABAC формата : Да
Параметр ReFrames формата : 8 кадров
Идентификатор кодека : V_MPEG4/ISO/AVC
Продолжительность : 1 ч. 42 м.
Битрейт : 1580 Кбит/сек
Ширина : 1024 пикселя
Высота : 428 пикселей
Соотношение сторон : 2,40:1
Частота кадров : 23,976 кадра/сек
Цветовое пространство : YUV
Субдискретизация насыщенности : 4:2:0
Битовая глубина : 8 бит
Тип развёртки : Прогрессивная
Бит/(Пиксели*Кадры) : 0.150
Размер потока : 1,10 Гбайт (76%)
Библиотека кодирования : x264 core 128 r2216 198a7ea
Настройки программы : cabac=1 / ref=8 / deblock=1:-2:-3 / analyse=0x3:0x133 / me=umh / subme=9 / psy=1 / psy_rd=1.09:0.10 / mixed_ref=1 / me_range=32 / chroma_me=1 / trellis=2 / 8x8dct=1 / cqm=0 / deadzone=21,11 / fast_pskip=1 / chroma_qp_offset=-3 / threads=2 / lookahead_threads=1 / sliced_threads=0 / nr=0 / decimate=1 / interlaced=0 / bluray_compat=0 / constrained_intra=0 / bframes=9 / b_pyramid=2 / b_adapt=2 / b_bias=0 / direct=3 / weightb=1 / open_gop=0 / weightp=2 / keyint=240 / keyint_min=22 / scenecut=40 / intra_refresh=0 / rc_lookahead=40 / rc=2pass / mbtree=1 / bitrate=1580 / ratetol=1.0 / qcomp=0.60 / qpmin=0 / qpmax=69 / qpstep=4 / cplxblur=20.0 / qblur=0.5 / ip_ratio=1.40 / aq=1:1.00
Default : Да
Forced : Нет

Аудио
Идентификатор : 2
Формат : AC-3
Формат/Информация : Audio Coding 3
Расширение режима : CM (complete main)
Идентификатор кодека : A_AC3
Продолжительность : 1 ч. 42 м.
Вид битрейта : Постоянный
Битрейт : 448 Кбит/сек
Каналы : 6 каналов
Расположение каналов : Front: L C R, Side: L R, LFE
Частота : 48,0 КГц
Битовая глубина : 16 бит
Метод сжатия : С потерями
Размер потока : 328 Мбайт (22%)
Заголовок : Дубляж
Язык : Russian
Default : Да
Forced : Нет





c15319f68f6fa6d41db920c81f8edcef0c2564f8Неудержимые 2 / The Expendables 2 (Саймон Уэст, Боевик, триллер, 2012) [BDRip-AVC, Дубляж] Неудержимые 2 / The Expendables 2 (Саймон Уэст, Боевик, триллер, 2012) [BDRip-AVC, Дубляж] " />

Аплоадер: Админ, дата: 6-10-2012, 15:48, торрент скачан: 359 раз

Понравилась раздача? Посмотрите эти:
  • Никто не выжил / No One Lives (Рюхэй Китамура, Триллер, ужасы, 2012) [BDRip ...
  • Толстяк на ринге / Here Comes the Boom (Фрэнк Корачи, Боевик, комедия, 2012 ...
  • Закон доблести / Act of Valor (Майк МакКой, Скотт Во, боевик, триллер, прик ...
  • Морской бой / Battleship (Питер Берг, фантастика, боевик, триллер, приключе ...
  • Морской бой / Battleship (Питер Берг, Фантастика, боевик, триллер, приключе ...
  • Медальон / Stolen (Саймон Уэст, Боевик, триллер, 2012) [BDRip-AVC, Дубляж]
  • Неудержимые 2 / The Expendables 2 (Саймон Уэст, Боевик, триллер, 2012) [HDR ...
  • Третий лишний / Ted (Сет МакФарлейн, Фэнтези, комедия, 2012) [BDRip-AVC, Ду ...
  • Неудержимые 2 / The Expendables 2 (Саймон Уэст, боевик, триллер, приключени ...
  • Неудержимые 2 / The Expendables 2 (Саймон Уэст, боевик, триллер, приключени ...
  • Неудержимые 2 / The Expendables 2 (Саймон Уэст, боевик, триллер, приключени ...
  • Неудержимые 2 / The Expendables 2 (Саймон Уэст, боевик, триллер, 2012) [BDR ...
  • Неудержимые 2 / The Expendables 2 (Саймон Уэст, боевик, триллер, 2012) [BDR ...
  • Неудержимые 2 / The Expendables 2 (Саймон Уэст, боевик, приключения, 2012) ...
  • Неудержимые 2 / The Expendables 2 (Саймон Уэст, боевик, триллер, 2012) [BDR ...
  • Неудержимые 2 / The Expendables 2 (Саймон Уэст, боевик, триллер, приключени ...
  • Неудержимые 2 / The Expendables 2 (Саймон Уэст, боевик, триллер, приключени ...
  • [iPhone, iPod] Неудержимые 2 / The Expendables 2 (Саймон Уэст, Боевик, Трил ...
  • Неудержимые 2 / The Expendables 2 (Саймон Уэст, Боевик, Триллер, 2012) [480 ...
  • Неудержимые 2 / The Expendables 2 (Саймон Уэст, Боевик, Триллер, 2012) [320 ...
  • Неудержимые 2 / The Expendables 2 (Саймон Уэст, Боевик, Триллер, 2012) [320 ...
  • Неудержимые 2 / The Expendables 2 (Саймон Уэст, боевик, триллер, 2012) [BDR ...
  • Неудержимые 2 / The Expendables 2 (Саймон Уэст, боевик, триллер, 2012) [Blu ...
  • Неудержимые 2 / The Expendables 2 (Саймон Уэст, боевик, триллер, 2012) [BDR ...
  • Неудержимые 2 / The Expendables 2 (Саймон Уэст, боевик, триллер, 2012) [HDR ...
  • Информация
    Посетители, находящиеся в группе Гости, не могут оставлять комментарии к данной публикации.