вход на сайт

Имя пользователя :
Пароль :

Восстановление пароля Регистрация
Медальон / Stolen (Саймон Уэст, Боевик, триллер, 2012) [BDRip-AVC, Дубляж]
Рейтинг:
(голосов: 1)



[img]{THEME}/images/logopost.png[/img]



Медальон / Stolen
«12 часов, $10 миллионов, 1 похищенная дочь»


Год выпуска: 2012
Страна: США
Производство: Simon West Productions, Wonderland Sound and Vision
Жанр: Боевик, триллер

Режиссёр: Саймон Уэст
В ролях: Николас Кейдж, Джош Лукас, Дэнни Хьюстон, Малин Акерман, Сами Гэйл, М. К. Гейни, Марк Вэлли, Мэтт Нолан, Мишель Торрес, Дж.Д. Эвермор...

Перевод: Дубляж
Субтитры: Отсутствуют

Описание: Неизвестные похищают дочь бывшего вора в законе, решившего завязать с темным прошлым. Похитители сообщают, что держат девочку-подростка в багажнике такси. У отца есть всего несколько часов, чтобы отыскать киднепперов и спасти ребенка. Он вновь ступает на криминальные тропы Нью-Йорка, и он не остановится ни перед чем…



Качество: BDRip-AVC | Сэмпл
Продолжительность: 01:35:50 час.


Формат: MKV
Видео кодек: x264
Аудио кодек: AC3
Видео:1024x576 (16:9), 24.000 fps, x264 ~ 1780 kbps avg, 0.126 bit/pixel
Аудио: 48 kHz, AC3 Dolby Digital, 3/2 (L,C,R,l,r) + LFE ch, ~384 kbps - (Дубляж)

Дата премьеры (мир): 6 сентября 2012
Дата премьеры (РФ): 6 сентября 2012, «Парадиз»

MediaInfo ▼Общее
Уникальный идентификатор : 171431681543060141992967102207418628572 (0x80F88A77C5180E8DB214F705C44EF9DC)
Полное имя : D:Stolen.2012.BDRip-AVC.mkv
Формат : Matroska
Версия формата : Version 2
Размер файла : 1,45 Гбайт
Продолжительность : 1 ч. 35 м.
Общий поток : 2163 Кбит/сек
Название фильма : Медальон / Stolen (2012) BDRip-AVC rip by Rulya74
Дата кодирования : UTC 2012-10-04 02:21:03
Программа кодирования : mkvmerge v5.7.0 (The Whirlwind) built on Jul 8 2012 20:08:51
Библиотека кодирования : libebml v1.2.3 + libmatroska v1.3.0

Видео
Идентификатор : 1
Формат : AVC
Формат/Информация : Advanced Video Codec
Профиль формата : [email protected]
Параметр CABAC формата : Да
Параметр ReFrames формата : 6 кадров
Идентификатор кодека : V_MPEG4/ISO/AVC
Продолжительность : 1 ч. 35 м.
Битрейт : 1780 Кбит/сек
Ширина : 1024 пикселя
Высота : 576 пикселей
Соотношение сторон : 16:9
Частота кадров : 24,000 кадра/сек
Цветовое пространство : YUV
Субдискретизация насыщенности : 4:2:0
Битовая глубина : 8 бит
Тип развёртки : Прогрессивная
Бит/(Пиксели*Кадры) : 0.126
Размер потока : 1,16 Гбайт (80%)
Библиотека кодирования : x264 core 128 r2216 198a7ea
Настройки программы : cabac=1 / ref=6 / deblock=1:-3:-2 / analyse=0x3:0x133 / me=umh / subme=9 / psy=1 / psy_rd=1.08:0.10 / mixed_ref=1 / me_range=32 / chroma_me=1 / trellis=2 / 8x8dct=1 / cqm=0 / deadzone=21,11 / fast_pskip=1 / chroma_qp_offset=-3 / threads=2 / lookahead_threads=1 / sliced_threads=0 / nr=0 / decimate=1 / interlaced=0 / bluray_compat=0 / constrained_intra=0 / bframes=6 / b_pyramid=2 / b_adapt=2 / b_bias=0 / direct=3 / weightb=1 / open_gop=0 / weightp=2 / keyint=240 / keyint_min=22 / scenecut=40 / intra_refresh=0 / rc_lookahead=40 / rc=2pass / mbtree=1 / bitrate=1780 / ratetol=1.0 / qcomp=0.60 / qpmin=0 / qpmax=69 / qpstep=4 / cplxblur=20.0 / qblur=0.5 / ip_ratio=1.40 / aq=1:1.00
Default : Да
Forced : Нет

Аудио
Идентификатор : 2
Формат : AC-3
Формат/Информация : Audio Coding 3
Расширение режима : CM (complete main)
Идентификатор кодека : A_AC3
Продолжительность : 1 ч. 35 м.
Вид битрейта : Постоянный
Битрейт : 384 Кбит/сек
Каналы : 6 каналов
Расположение каналов : Front: L C R, Side: L R, LFE
Частота : 48,0 КГц
Битовая глубина : 16 бит
Метод сжатия : С потерями
Размер потока : 263 Мбайт (18%)
Заголовок : Дубляж
Язык : Russian
Default : Да
Forced : Нет




0944dc1ad9b4768bcc0b4d14485920d79bd7d9b3Медальон / Stolen (Саймон Уэст, Боевик, триллер, 2012) [BDRip-AVC, Дубляж] Медальон / Stolen (Саймон Уэст, Боевик, триллер, 2012) [BDRip-AVC, Дубляж] " />

Аплоадер: Админ, дата: 4-10-2012, 14:20, торрент скачан: 359 раз

Понравилась раздача? Посмотрите эти:
  • Никто не выжил / No One Lives (Рюхэй Китамура, Триллер, ужасы, 2012) [BDRip ...
  • Ангелы Чарли / Charlies Angels (МакДжи, Боевик, триллер, комедия, криминал, ...
  • Толстяк на ринге / Here Comes the Boom (Фрэнк Корачи, Боевик, комедия, 2012 ...
  • Суррогат / The Sessions (Бен Луин, Драма, 2012) [BDRip-AVC, Профессиональны ...
  • Закон доблести / Act of Valor (Майк МакКой, Скотт Во, боевик, триллер, прик ...
  • Морской бой / Battleship (Питер Берг, фантастика, боевик, триллер, приключе ...
  • Морской бой / Battleship (Питер Берг, Фантастика, боевик, триллер, приключе ...
  • Прометей / Prometheus (Ридли Скотт, Фантастика, триллер, приключения, 2012) ...
  • Медальон / Stolen (Саймон Уэст, Боевик, триллер, 2012) [BDRip-AVC, Дубляж]
  • Медальон / Stolen (Саймон Уэст, Боевик, триллер, 2012) [HDRip-AVC, Дублиров ...
  • Неудержимые 2 / The Expendables 2 (Саймон Уэст, Боевик, триллер, 2012) [BDR ...
  • Судный день / The Day (Дуглас Арниокоски, фантастика, триллер, драма, 2011) ...
  • Цунами 3D / Bait (Кимбл Рендалл, ужасы, боевик, триллер, 2011) [BDRip-AVC, ...
  • Третий лишний / Ted (Сет МакФарлейн, Фэнтези, комедия, 2012) [BDRip-AVC, Ду ...
  • Я, Алекс Кросс / Alex Cross (Роб Коэн, Боевик, триллер, криминал, детектив, ...
  • Помогите Стать Отцом / Not Suitable For Children (Питер Темплмен, Мелодрама ...
  • Медальон / Stolen (Саймон Уэст, Боевик, триллер, 2012) [DVD9, Дубляж, Ориги ...
  • Медальон / Stolen (Саймон Уэст, Боевик, триллер, 2012) [BDRip 720p, Дубляж, ...
  • Медальон / Stolen (Саймон Уэст, Боевик, триллер, 2012) [BDRip 1080p, Дубляж ...
  • Медальон / Stolen (Саймон Уэст, Боевик, триллер, драма, 2012) [BDRip-AVC, ...
  • [Phone, iPod] Медальон / Stolen (Саймон Уэст, Боевик, Триллер, 2012) [480x2 ...
  • Медальон / Stolen (Саймон Уэст, Боевик, триллер, 2012) [BDRip, Дубляж]
  • Медальон / Stolen (Саймон Уэст, боевик, триллер, 2012) [Blu-ray Disc [RUS] ...
  • Медальон / Stolen (Саймон Уэст, Боевик, триллер, 2012) [HDRip, Дубляж]
  • Медальон / Stolen (Саймон Уэст, Боевик, Триллер, 2012) [320x176] [HDRip, Ду ...
  • Информация
    Посетители, находящиеся в группе Гости, не могут оставлять комментарии к данной публикации.