вход на сайт

Имя пользователя :
Пароль :

Восстановление пароля Регистрация
Тормоз / Brake (Гейб Торрес, триллер, криминал, 2011) [HDRip-AVC, Профессиональный (многоголосый, закадровый)]
Рейтинг:
(голосов: 1)



[img]{THEME}/images/logopost.png[/img]



Тормоз / Brake

Год выпуска: 2011
Страна: США
Производство: Costa Productions, La, Walking West Entertainment
Жанр: Триллер, криминал

Режиссёр: Гейб Торрес
В ролях: Стивен Дорфф, Кайлер Ли, ДжейАр Борн, Том Беренджер, Bobby Tomberlin, Кали Роча, Марк Уоллес, Прюитт Тэйлор Винс, Сэмми Шейк, Кент Шокнек

Перевод: Профессиональный (многоголосый, закадровый) [Лицензия]
Субтитры: Нет

Описание: Секретного агента Джереми Рейнса похищают загадочные незнакомцы. Одного из лучших мастеров своего дела обвели вокруг пальца и используют в качестве приманки в террористической операции. Жизнь Джереми и всей его семьи — на волоске. Счет идет на минуты, и у него остается все меньше и меньше времени, чтобы сдать похитителям секретную информацию, которую он поклялся хранить ценой собственной жизни.

КиноПоиск: 6.253 (905)
IMDB: 6.00 (3 310)

Качество: HDRip-AVC [BDRip 720]
Продолжительность: 01:31:18

Формат: MKV
Видео кодек: AVC
Аудио кодек: AC3
Видео: 896x504 (16:9), 23,976 fps, AVC, ~1901 kbps avg, 0.176 bit/pixel
Аудио: 48 kHz, Audio Coding 3, (L,C,R,l,r) + LFE ch, ~384 kbps avg
"MediaInfo" ▼TextОбщее
Уникальный идентификатор : 201975825288307132956960449212070755302 (0x97F32105EA453114BDA8706F7537FBE6)
Полное имя : D:Tormoz_2012_HDRip_AVC_MVO.mkv
Формат : Matroska
Размер файла : 1,46 Гбайт
Продолжительность : 1 ч. 31 м.
Общий поток : 2284 Кбит/сек
Название фильма : Rip by S.T.A.L.K.E.R.2
Дата кодирования : UTC 2012-08-15 16:34:16
Программа кодирования : mkvmerge v4.7.0 (Just Like You Imagined) сборка от Apr 21 2011 01:13:14
Библиотека кодирования : libebml v1.2.0 + libmatroska v1.1.0

Видео
Идентификатор : 1
Формат : AVC
Формат/Информация : Advanced Video Codec
Профиль формата : [email protected]
Параметр CABAC формата : Да
Параметр ReFrames формата : 10 кадры
Идентификатор кодека : V_MPEG4/ISO/AVC
Продолжительность : 1 ч. 31 м.
Битрейт : 1901 Кбит/сек
Ширина : 896 пикс.
Высота : 504 пикс.
Соотношение сторон : 16:9
Частота кадров : 23,976 кадр/сек
Цветовое пространство : YUV
Подвыборка цветности : 4:2:0
Битовая глубина : 8 бит
Тип развёртки : Прогрессивная
Бит/(Пиксели*Кадры) : 0.176
Размер потока : 1,18 Гбайт (81%)
Библиотека кодирования : x264 core 125 r2200 999b753
Настройки программы : cabac=1 / ref=10 / deblock=1:-2:-1 / analyse=0x3:0x113 / me=umh / subme=10 / psy=1 / psy_rd=1.00:0.00 / mixed_ref=1 / me_range=32 / chroma_me=1 / trellis=2 / 8x8dct=1 / cqm=0 / deadzone=21,11 / fast_pskip=0 / chroma_qp_offset=-2 / threads=3 / lookahead_threads=1 / sliced_threads=0 / nr=0 / decimate=0 / interlaced=0 / bluray_compat=0 / constrained_intra=0 / bframes=12 / b_pyramid=2 / b_adapt=2 / b_bias=0 / direct=3 / weightb=1 / open_gop=0 / weightp=2 / keyint=240 / keyint_min=23 / scenecut=40 / intra_refresh=0 / rc_lookahead=40 / rc=2pass / mbtree=1 / bitrate=1901 / ratetol=1.0 / qcomp=0.60 / qpmin=10 / qpmax=51 / qpstep=4 / cplxblur=20.0 / qblur=0.5 / vbv_maxrate=50000 / vbv_bufsize=50000 / nal_hrd=none / ip_ratio=1.40 / aq=1:1.00
Язык : English

Аудио
Идентификатор : 2
Формат : AC-3
Формат/Информация : Audio Coding 3
Расширение режима : CM (complete main)
Идентификатор кодека : A_AC3
Продолжительность : 1 ч. 31 м.
Вид битрейта : Постоянный
Битрейт : 384 Кбит/сек
Канал(ы) : 6 канала(ов)
Расположение каналов : Front: L C R, Side: L R, LFE
Частота : 48,0 КГц
Битовая глубина : 16 бит
Метод сжатия : С потерями
Размер потока : 251 Мбайт (17%)
Заголовок : DD 5.1 @ 384 kbps
Язык : Russian

Меню
00:00:00.000 : en:Chapter 1
00:12:20.883 : en:Chapter 2
00:19:25.057 : en:Chapter 3
00:31:21.439 : en:Chapter 4
00:40:32.156 : en:Chapter 5
00:48:31.510 : en:Chapter 6
00:59:11.941 : en:Chapter 7
01:08:13.524 : en:Chapter 8
01:17:20.987 : en:Chapter 9
01:28:02.545 : en:Chapter 10
01:31:17.740 : en:Chapter 11


Стол заказов POWER | Отзывы | Вступление в POWER


56927eaa09e11037ae88e04091e6cc2b7cb941b1Тормоз / Brake (Гейб Торрес, триллер, криминал, 2011) [HDRip-AVC, Профессиональный (многоголосый, закадровый)] Тормоз / Brake (Гейб Торрес, триллер, криминал, 2011) [HDRip-AVC, Профессиональный (многоголосый, закадровый)] " />

Аплоадер: Админ, дата: 30-08-2012, 17:10, торрент скачан: 359 раз

Понравилась раздача? Посмотрите эти:
  • Война миров Z / World War Z [Расширенная версия] (Марк Форстер, ужасы, фант ...
  • Астрал на улице Арлетт / 388 Arletta Avenue (Рэндолл Коул, Триллер, 2011) [ ...
  • Королевство кривых зеркал (Александр Роу, фэнтези, семейный, 1963) [BDRip-A ...
  • Клин клином / Fire with Fire (Дэвид Баррет, боевик, триллер, криминал, 2012 ...
  • Джек Ричер / Jack Reacher (Кристофер МакКуорри, Боевик,триллер, криминал, д ...
  • Убей ради меня / Kill for Me (Майкл Гринспен, триллер, драма, 2013) [DVDRip ...
  • Побег / Flukt (Роар Утхауг, боевик, 2012) [DVDRip-AVC, Любительский (одного ...
  • Белый слон / Elephant White (Прачья Пинкаю, боевик, триллер, криминал, 2011 ...
  • Челюсти 3D / Shark Night 3D ( Дэвид Р. Эллис, ужасы, 2011) [BDRip-AVC, Проф ...
  • Иностранный легион / La cité (Ким Нгуйен / Kim Nguyen, драма, 2010) [DVDRip ...
  • Полководцы / Tau ming chong (Питер Чан, Вэй мэн Йип, боевик, драма, военный ...
  • Тормоз / Brake (Гейб Торрес, Боевик, 2012) [BDRip-AVC, Профессиональный (мн ...
  • Тормоз / Brake (Гейб Торрес, Боевик, триллер, 2011) [BDRip-AVC, Профессиона ...
  • ДухLess (Роман Прыгунов, Драма, 2012) [BDRip-AVC, Не требуется]
  • Патруль / End of Watch (Дэвид Эйр, Триллер, драма, криминал, 2012) [HDRip-A ...
  • Цель жизни /Lyaksha (Фархан Ахтар, мелодрама, 2004) [DVDRip, Многоголосый ...
  • Облачный атлас / Cloud Atlas (Лана Вачовски, Том Тыквер, Энди Вачовски, фан ...
  • День учителя (Сергей Мокрицкий, драма, 2012) [DVDRip-AVC, Не требуется]
  • Рейдер (Всеволод Аравин, драма, криминал, 2011) [BDRip 720p, оригинал]
  • Маугли (Роман Давыдов, мультфильм, приключения, семейный, 1973) [BDRip 720p ...
  • Вышибала / Goon (Майкл Даус, комедия, 2011) [BDRip 1080p, Профессиональный ...
  • Тормоз / Brake (Гейб Торрес, боевик, триллер, 2012) [DVDRip, Профессиональн ...
  • Тормоз / Brake (Гейб Торрес, боевик, триллер, 2012) [DVD9, Профессиональный ...
  • Тормоз / Brake (Гейб Торрес, боевик, триллер, 2011) [Blu-ray Disc, професси ...
  • Тормоз / Brake (Гейб Торрес, Боевик, триллер, 2011) [HDRip, Профессиональны ...
  • Информация
    Посетители, находящиеся в группе Гости, не могут оставлять комментарии к данной публикации.