вход на сайт

Имя пользователя :
Пароль :

Восстановление пароля Регистрация
Ромео должен умереть / Romeo Must Die (Анджей Бартковяк, Боевик, триллер, криминал, 2000) [BDRip-AVC, Дубляж, Оригинал, 2хАвторский (одноголосый, закадровый), 2хПрофессиональный (многоголосый, закадровый), Sub]
Рейтинг:
(голосов: 1)



[img]{THEME}/images/logopost.png[/img]



Ромео должен умереть / Romeo Must Die

Год выпуска: 2000
Страна: США
Производство: Warner Bros. Pictures
Жанр: Боевик, триллер, криминал

Режиссёр: Анджей Бартковяк
В ролях: Джет Ли, Алия, Айзэйя Вашингтон, Расселл Вонг, DMX, Делрой Линдо, Д.Б. Вудсайд, Генри О, Джонкит Ли, Эдоардо Баллерини

Перевод: Дубляж, Оригинал, А. Гаврилов, В.Сонькин, Профессиональный (многоголосый закадровый) d2lab, Профессиональный (многоголосый закадровый) НТВ+
Субтитры: русские, английские

Описание: У них есть оружие. У них есть деньги. Но у них нет никаких шансов против бывшего полицейского Хан Синга. Джет Ли играет крутого и готового на все Хана, не без взаимности влюбленного в Триш О Дэй, несмотря на то, что их семьи ведут жестокую войну за передел в Окленде. Опасности объединяют влюбленных, когда они пытаются выяснить истинные причины кровавых разборок.
Качество: BDRip-AVC
Продолжительность: 01:55:04 час.


Формат: MKV
Видео кодек: x264
Аудио кодек: AC3
Видео: 1136x472 (2.40:1), 23.976 fps, x264 ~2 789 kbps avg, 0.217 bit/pixel
Аудио#1: 48 kHz, AC3 Dolby Digital, 3/2 (L,C,R,l,r) + LFE ch, ~348 kbps - (Дубляж)
Аудио#2: 48 kHz, AC3 Dolby Digital, 3/2 (L,C,R,l,r) + LFE ch, ~448 kbps- (English)
Аудио#3: 48 kHz, AC3 Dolby Digital, 3/2 (L,C,R,l,r) + LFE ch, ~448 kbps- (MVO d2lab)
Аудио#4: 48 kHz, AC3 Dolby Digital, 2/0 (L,R) ch, ~192 kbps- (MVO HTB+ )
Аудио#5: 48 kHz, AC3 Dolby Digital, 3/2 (L,C,R,l,r) + LFE ch, ~448 kbps - (Гаврилов)
Аудио#6: 48 kHz, AC3 Dolby Digital, 2/0 (L,R) ch, ~192 kbps- (Сонькин )

Дата премьеры (мир): 20 марта 2000
Дата премьеры (РФ): 7 сентября 2000

MediaInfo ▼General
Unique ID : 173031295142607633901847983389686831815 (0x822C9D81E259E79BB2980F25394B1AC7)
Complete name : C:VideoRomeo Must Die.mkv
Format : Matroska
Format version : Version 2
File size : 2.91 GiB
Duration : 1h 55mn
Overall bit rate : 3 620 Kbps
Encoded date : UTC 2012-08-17 17:24:26
Writing application : mkvmerge v5.6.0 (Kenya Kane) built on May 27 2012 16:44:04
Writing library : libebml v1.2.3 + libmatroska v1.3.0

Video
ID : 1
Format : AVC
Format/Info : Advanced Video Codec
Format profile : [email protected]
Format settings, CABAC : Yes
Format settings, ReFrames : 15 frames
Codec ID : V_MPEG4/ISO/AVC
Duration : 1h 55mn
Bit rate : 2 789 Kbps
Width : 1 136 pixels
Height : 472 pixels
Display aspect ratio : 2.40:1
Frame rate : 23.976 fps
Color space : YUV
Chroma subsampling : 4:2:0
Bit depth : 8 bits
Scan type : Progressive
Bits/(Pixel*Frame) : 0.217
Stream size : 2.18 GiB (75%)
Title : AVC (x264) [email protected] fps ~2789 kBit/s 2-pass High 4.1
Writing library : x264 core 122 r2184bm 5c85e0a
Encoding settings : cabac=1 / ref=15 / deblock=1:-2:-2 / analyse=0x3:0x133 / me=umh / subme=10 / psy=1 / psy_rd=1.00:0.05 / mixed_ref=1 / me_range=48 / chroma_me=1 / trellis=2 / 8x8dct=1 / cqm=0 / deadzone=21,11 / fast_pskip=0 / chroma_qp_offset=-3 / threads=6 / sliced_threads=0 / nr=0 / decimate=0 / interlaced=0 / bluray_compat=0 / constrained_intra=0 / bframes=12 / b_pyramid=2 / b_adapt=2 / b_bias=0 / direct=3 / weightb=1 / open_gop=0 / weightp=2 / keyint=250 / keyint_min=23 / scenecut=40 / intra_refresh=0 / rc=2pass / mbtree=0 / bitrate=2789 / ratetol=1.0 / qcomp=0.90 / qpmin=0 / qpmax=69 / qpstep=4 / cplxblur=20.0 / qblur=0.5 / ip_ratio=1.40 / pb_ratio=1.45 / aq=2:1.15
Language : English
Default : Yes
Forced : No

Audio #1
ID : 2
Format : AC-3
Format/Info : Audio Coding 3
Mode extension : CM (complete main)
Format settings, Endianness : Big
Codec ID : A_AC3
Duration : 1h 55mn
Bit rate mode : Constant
Bit rate : 384 Kbps
Channel(s) : 6 channels
Channel positions : Front: L C R, Side: L R, LFE
Sampling rate : 48.0 KHz
Bit depth : 16 bits
Compression mode : Lossy
Stream size : 316 MiB (11%)
Title : DUB Мост-видео AC3 384 kBit/s 48 kHz 5.1 DD
Language : Russian
Default : Yes
Forced : No

Audio #2
ID : 3
Format : AC-3
For
d8ed317f75f943412a90c2089a86a519f7e90158Ромео должен умереть / Romeo Must Die (Анджей Бартковяк, Боевик, триллер, криминал, 2000) [BDRip-AVC, Дубляж, Оригинал, 2хАвторский (одноголосый, закадровый), 2хПрофессиональный (многоголосый, закадровый), Sub] Ромео должен умереть / Romeo Must Die (Анджей Бартковяк, Боевик, триллер, криминал, 2000) [BDRip-AVC, Дубляж, Оригинал, 2хАвторский (одноголосый, закадровый), 2хПрофессиональный (многоголосый, закадровый), Sub] " />

Аплоадер: Админ, дата: 18-08-2012, 16:07, торрент скачан: 359 раз

Понравилась раздача? Посмотрите эти:
  • Погнали! / Getaway (Кортни Соломон, боевик, криминал, 2013) [BDRip 720p, Пр ...
  • Ромео должен умереть / Romeo Must Die (Анджей Бартковяк, Боевик, триллер, к ...
  • Ослепленный желаниями / Bedazzled (Харольд Рэмис, фэнтези, комедия, 2000) [ ...
  • Честь дракона / Tom yum goong (Прачья Пинкаю, боевик, триллер, драма, крим ...
  • Ордер на смерть / Death warrant (Деран Сарафян, Боевик, драма, криминал, де ...
  • Джекпот / Arme Riddere (Магнус Мартенс, Боевик, комедия, криминал, 2011) [B ...
  • Черный дрозд / Deadfall (Штефан Руцовицки, Триллер, драма, криминал, 2012) ...
  • Ромео должен умереть / Romeo Must Die (Анджей Бартковяк, Боевик, 2000) [HDR ...
  • Ромео должен умереть / Romeo Must Die (Анджей Бартковяк, боевик, 2000] [HDT ...
  • Мэверик / Maverick (Ричард Доннер, боевик, триллер, комедия, приключения, в ...
  • Американский психопат / American Psycho (Мэри Хэррон, триллер, драма, крими ...
  • Враг государства / Enemy of the State (Тони Скотт, боевик, триллер, драма, ...
  • Пришелец / Impostor (Гэри Фледер, фантастика, боевик, триллер, драма, 2001) ...
  • Повторяющие / Repeaters (Карл Бессай, фантастика, боевик, триллер, драма, к ...
  • [Квадрология] Индиана Джонс: Квадрология / Indiana Jones: Quadrology (Стиве ...
  • Патруль / End of Watch (Дэвид Эйр, Триллер, драма, криминал, 2012) [BDRip-A ...
  • Специалист / The Specialist (Луис Льоса, боевик, триллер, 1994) [BDRip 1080 ...
  • Похищенная / A Lonely Place to Die (Джулиан Джилби, триллер, криминал, прик ...
  • Ворон / The Raven (Джеймс МакТиг, Триллер, детектив, 2012) [BDRip 720p, Дуб ...
  • Пираньи 3DD / Piranha 3DD (Джон Гулажер, ужасы, триллер, комедия, 2012) [BD ...
  • Цунами 3D / Bait (Кимбл Рендалл, Ужасы, боевик, триллер, 2011) [BDRip 720p ...
  • Патруль / End of Watch (Дэвид Эйр, Триллер, драма, криминал, 2012) [BDRip 7 ...
  • Слова / The Words [EXTENDED] (Ли Стернтал, Драма, мелодрама, 2012) [BDRip 7 ...
  • Ромео должен умереть / Romeo Must Die (Анджей Бартковяк,боевик, триллер, др ...
  • Ромео должен умереть / Romeo Must Die (Анджей Бартковяк, Боевик, триллер, к ...
  • Информация
    Посетители, находящиеся в группе Гости, не могут оставлять комментарии к данной публикации.