вход на сайт

Имя пользователя :
Пароль :

Восстановление пароля Регистрация
Охота за "Красным Октябрём" / The Hunt for "Red October" (Джон МакТирнан, боевик, триллер, приключения, 1990) [BDRip - AVC, Профессиональный (многоголосый закадровый) + Авторский + Оригинал + SUB]
Рейтинг:
(голосов: 1)



[img]{THEME}/images/logopost.png[/img]



Охота за "Красным Октябрём" / The Hunt for "Red October"
«The hunt is on.»

Год выпуска: 1990
Страна: США
Производство: Mace Neufeld Productions, Nina Saxon Film Design, Paramount Pictures
Жанр: боевик, триллер, приключения

Режиссёр: Джон МакТирнан | John MakTirnan
В ролях: Шон Коннери, Алек Болдуин, Скотт Гленн, Сэм Нилл, Джеймс Эрл Джонс, Джосс Экланд, Ричард Джордан, Питер Фёрт

Перевод: 1 - Профессиональный (многоголосый закадровый)
2 - Авторский (одноголосый закадровый) | А. Гаврилов
3 - Оригинал (Английский)
Субтитры: softsub (SRT) |Английские

Описание:
Новейшая советская атомная подводная лодка «Красный Октябрь» способна нарушить хрупкий стратегический баланс между США и СССР. Ее капитан Рамиус решает передать субмарину в руки американцев.



Дата премьеры (мир): 2 марта 1990
Релиз на DVD: 8 декабря 2009, «Юниверсал Пикчерс Рус»
Релиз на Blu-Ray: 5 апреля 2011, «Юниверсал Пикчерс Рус»

Качество: BDRip - AVC | исх. The Hunt for "Red October". Blu-ray 1080р
Продолжительность: 02:15:07 час.

Формат: MKV
Видео кодек: H.264
Аудио кодек: АС3
Видео: 1136x480 (2.35:1), 23.976 fps, H.264 ~3 285 kbps avg, 0.251 bit/pixel
Аудио #1: 48 kHz, АС3, 3/2 (L,C,R,l,r) + LFE ch, ~448.00 kbps avg | Профессиональный (полное дублирование)
Аудио #2: 48 kHz, АС3, 3/2 (L,C,R,l,r) + LFE ch, ~448.00 kbps avg | Авторский (одноголосый закадровый) | А.Гаврилов
Аудио #3: 48 kHz, АС3, 3/2 (L,C,R,l,r) + LFE ch, ~448.00 kbps avg | Оригинал (Английский)
MediaInfo ▼General
Complete name : D:...The.Hunt.For.Red.October.1990.BDRip.x264.AC3.Rus.Eng-E76.mkv
Format : Matroska
File size : 4.37 GiB
Duration : 2h 15mn
Overall bit rate : 4 627 Kbps
Encoded date : UTC 2011-01-09 06:17:47
Writing application : mkvmerge v4.0.0 (The Stars were mine) сборка от Jun 6 2010 16:18:42
Writing library : libebml v1.0.0 + libmatroska v1.0.0
Video
ID : 1
Format : AVC
Format/Info : Advanced Video Codec
Format profile : [email protected]
Format settings, CABAC : Yes
Format settings, ReFrames : 12 frames
Codec ID : V_MPEG4/ISO/AVC
Duration : 2h 15mn
Bit rate : 3 285 Kbps
Width : 1 136 pixels
Height : 480 pixels
Display aspect ratio : 2.35:1
Frame rate : 23.976 fps
Color space : YUV
Chroma subsampling : 4:2:0
Bit depth : 8 bits
Scan type : Progressive
Bits/(Pixel*Frame) : 0.251
Stream size : 3.01 GiB (69%)
Writing library : x264 core 112 r1834 a51816a
Encoding settings : cabac=1 / ref=12 / deblock=1:-3:-2 / analyse=0x3:0x113 / me=umh / subme=10 / psy=1 / psy_rd=1.05:0.05 / mixed_ref=1 / me_range=48 / chroma_me=1 / trellis=2 / 8x8dct=1 / cqm=0 / deadzone=21,11 / fast_pskip=0 / chroma_qp_offset=-4 / threads=6 / sliced_threads=0 / nr=0 / decimate=0 / interlaced=0 / constrained_intra=0 / bframes=10 / b_pyramid=2 / b_adapt=2 / b_bias=0 / direct=1 / weightb=1 / open_gop=0 / weightp=2 / keyint=250 / keyint_min=23 / scenecut=40 / intra_refresh=0 / rc_lookahead=100 / rc=2pass / mbtree=1 / bitrate=3285 / ratetol=1.0 / qcomp=0.75 / qpmin=0 / qpmax=51 / qpstep=4 / cplxblur=20.0 / qblur=0.5 / vbv_maxrate=50000 / vbv_bufsize=62500 / ip_ratio=1.40 / aq=2:1.00 / zones=189875,194390,q=40 / nal_hrd=none
Language : English
Audio #1
ID : 2
Format : AC-3
Format/Info : Audio Coding 3
Mode extension : CM (complete main)
Codec ID : A_AC3
Duration : 2h 15mn
Bit rate mode : Constant
Bit rate : 448 Kbps
Channel(s) : 6 channels
Channel positions : Front: L C R, Side: L R, LFE
Sampling rate : 48.0 KHz
Bit depth : 16 bits
Stream size : 433 MiB (10%)
Title : MVO
Language : Russian
Audio #2
ID : 3
Format : AC-3
Format/Info : Audio Coding 3
Mode extension : CM (complete main)
Codec ID : A_AC3
Duration : 2h 15mn
Bit rate mode : Constant
Bit rate : 448 Kbps
C
b39e5cd71cf641c5fe051714586352e615e1cb32Охота за "Красным Октябрём" / The Hunt for "Red October" (Джон МакТирнан, боевик, триллер, приключения, 1990) [BDRip - AVC, Профессиональный (многоголосый закадровый) + Авторский + Оригинал + SUB] Охота за "Красным Октябрём" / The Hunt for "Red October" (Джон МакТирнан, боевик, триллер, приключения, 1990) [BDRip - AVC, Профессиональный (многоголосый закадровый) + Авторский + Оригинал + SUB] " />

Аплоадер: Админ, дата: 16-08-2012, 00:18, торрент скачан: 359 раз

Понравилась раздача? Посмотрите эти:
  • Добро пожаловать в капкан / Welcome to the Punch (Эрен Криви, боевик, трил ...
  • Железная леди / The Iron Lady (Филлида Ллойд, драма, биография, история, 20 ...
  • Отдел 13 / Diamant 13 (Гайллз Бэхат, Боевик, триллер, криминал, 2009) [BDRi ...
  • Ордер на смерть / Death warrant (Деран Сарафян, Боевик, драма, криминал, де ...
  • Водитель / The Driver (Уолтер Хилл, Боевик, триллер, драма, криминал, 1978) ...
  • Убить по расписанию / Ticking Clock (Эрни Барбараш, фантастика, боевик, три ...
  • Мэверик / Maverick (Ричард Доннер, боевик, триллер, комедия, приключения, в ...
  • Обряд / The Rite (Микаэль Хафстрем, ужасы, триллер, драма, 2011) [BDRip-AVC ...
  • Пир / Feast (Джон Гулажер, ужасы, боевик, триллер, комедия, 2005) [BDRip-AV ...
  • Апокалипсис сегодня / Apocalypse Now (Френсис Форд Коппола / Francis Ford C ...
  • Пятница 13-е / Friday the 13th (Шон С. Каннингэм, ужасы, триллер, детектив, ...
  • Пятница 13-е Часть III / Friday the 13th Part III (Стив Майнер, ужасы, трил ...
  • Город воров [Театральная версия] / The Town [Theatrical cut] (Бен Аффлек, т ...
  • Роб Рой / Rob Roy (Майкл Кейтон-Джонс, боевик, драма, мелодрама, 1995) [BDR ...
  • Геркулес / Hercules (Рон Клементс, Джон Маскер, Мультфильм, 1997 г.)[HDTVRi ...
  • Один Дома / Home Alone (Крис Коламбус, комедия, приключения, семейный, 1990 ...
  • Чернокнижник / Warlock (Стив Майнер, ужасы, фэнтези, боевик, триллер, 1989) ...
  • Красавчик Джонни / Johnny Handsome (Уолтер Хилл, Триллер, драма, криминал, ...
  • Специалист / The Specialist (Луис Льоса, боевик, триллер, 1994) [BDRip 1080 ...
  • Похищенная / A Lonely Place to Die (Джулиан Джилби, триллер, криминал, прик ...
  • Китайский квартал / Chinatown (Роман Полански, Триллер, драма, криминал, де ...
  • Викинги / Outlander (Ховард МакКейн, Фантастика, боевик, приключения, 2008) ...
  • Охота за Красным октябрём
  • Охота за «Красным Октябрем» / The Hunt for Red October (Джон МакТирнан, Бое ...
  • Охота за «Красным Октябрем» / The Hunt for Red October (Джон МакТирнан, бое ...
  • Информация
    Посетители, находящиеся в группе Гости, не могут оставлять комментарии к данной публикации.