вход на сайт

Имя пользователя :
Пароль :

Восстановление пароля Регистрация
Мальчики-налетчики / Takers (Джон Льюсенхоп, боевик, криминал, 2010) [BDRip - AVC, Дублированный + Оригинал + SUB]
Рейтинг:
(голосов: 1)



[img]{THEME}/images/logopost.png[/img]



Мальчики-налетчики / Takers
«Чем живёшь, молодежь...»

Год выпуска: 2010
Страна: США
Производство: Grand Hustle Entertainment, Overbrook Entertainment, Rainforest Films, Screen Gems
Жанр: боевик, криминал

Режиссёр: Джон Льюсенхоп | John Lyusenhop
В ролях: Пол Уокер, Хейден Кристенсен, Мэтт Диллон, Зои Салдана, Марианн Жан-Баптист, Крис Браун, Майкл Или, Идрис Эльба, Стив Харрис, Ти Ай...

Перевод: 1: Профессиональный (полное дублирование) | DUB
2: Оригинал
Субтитры: русские, английские

Описание: После серии блестяще спланированных ограблений банков команда взломщиков-профи, известных на всю Калифорнию, решается пойти на последнее, самое прибыльное дело. Такой шанс просто нельзя упустить, ведь на кону 25 миллионов долларов. Вот только есть один упертый полицейский, который готов на все, чтобы уничтожить банду мальчиков-налетчиков…Дата премьеры (мир): 4 августа 2010
Дата премьеры (РФ): 4 ноября 2010, «WDSSPR»
Релиз на DVD: 2 декабря 2010, «Columbia/Sony»
Релиз на Blu-Ray: 24 февраля 2011, «Columbia/Sony»
Качество: BDRip - AVC | исходник: Blu-Ray Remux / 1080p
Продолжительность: 01:47:05

Формат: MKV
Видео кодек: x264
Аудио кодек: AC3
Видео: 1056 x 440 (2.40:1), 23.976 fps, AVC, ~2 152 kbps avg, 0.193 bit/pixel
Аудио #1: [RUS] 48 kHz, AC3, 6 channels (Front: L C R, Side: L R, LFE), ~384.00 kbps avg | DUB
Аудио #2: [ENG] 48 kHz, AC3, 6 channels (Front: L C R, Side: L R, LFE), ~384.00 kbps avg | Оригинал
MediaInfo ▼TextGeneral
Unique ID : 212356477773148695668243399430851259664 (0x9FC25EB4921C8B5D93C78D612FBBED10)
Complete name : D:Мои раздачиTakers (2010)Takers.mkv
Format : Matroska
Format version : Version 2
File size : 2.18 GiB
Duration : 1h 47mn
Overall bit rate : 2 915 Kbps
Encoded date : UTC 2011-08-23 23:41:20
Writing application : mkvmerge v4.9.1 (Ich will) сборка от Jul 11 2011 23:53:15
Writing library : libebml v1.2.1 + libmatroska v1.1.1
Video
ID : 1
Format : AVC
Format/Info : Advanced Video Codec
Format profile : [email protected]
Format settings, CABAC : Yes
Format settings, ReFrames : 9 frames
Codec ID : V_MPEG4/ISO/AVC
Duration : 1h 47mn
Bit rate : 2 152 Kbps
Width : 1 056 pixels
Height : 440 pixels
Display aspect ratio : 2.40:1
Frame rate : 23.976 fps
Color space : YUV
Chroma subsampling : 4:2:0
Bit depth : 8 bits
Scan type : Progressive
Bits/(Pixel*Frame) : 0.193
Stream size : 1.56 GiB (72%)
Writing library : x264 core 115 r1995 c1e60b9
Encoding settings : cabac=1 / ref=9 / deblock=1:-1:-1 / analyse=0x3:0x113 / me=umh / subme=10 / psy=1 / psy_rd=1.05:0.00 / mixed_ref=1 / me_range=32 / chroma_me=1 / trellis=2 / 8x8dct=1 / cqm=0 / deadzone=21,11 / fast_pskip=0 / chroma_qp_offset=-2 / threads=6 / sliced_threads=0 / nr=0 / decimate=1 / interlaced=0 / bluray_compat=0 / constrained_intra=0 / bframes=9 / b_pyramid=2 / b_adapt=2 / b_bias=0 / direct=3 / weightb=1 / open_gop=0 / weightp=2 / keyint=250 / keyint_min=23 / scenecut=40 / intra_refresh=0 / rc=2pass / mbtree=0 / bitrate=2152 / ratetol=1.0 / qcomp=0.60 / qpmin=0 / qpmax=69 / qpstep=4 / cplxblur=20.0 / qblur=0.5 / ip_ratio=1.40 / pb_ratio=1.30 / aq=1:0.90 / zones=146668,154047,q=35
Language : English
Audio #1
ID : 2
Format : AC-3
Format/Info : Audio Coding 3
Mode extension : CM (complete main)
Codec ID : A_AC3
Duration : 1h 47mn
Bit rate mode : Constant
Bit rate : 384 Kbps
Channel(s) : 6 channels
Channel positions : Front: L C R, Side: L R, LFE
Sampling rate : 48.0 KHz
Bit depth : 16 bits
Compression mode : Lossy
Stream size : 294 MiB (13%)
Title : Dub
Language : Russian
Audio #2
ID : 3
Format : AC-3
Format/Info : Audio Coding 3
Mode extension : CM (complete main)
Codec ID : A_AC3
Duration : 1h 47mn
Bit rate mode : Constant
Bit rate : 384 Kbps
Channel(s) : 6 channels
Channel positions : Front: L C R, Side: L R, LFE
Sampling rate : 48.0 KHz
1c52e26add2819005bbdd048ad697f096b81d506Мальчики-налетчики / Takers (Джон Льюсенхоп, боевик, криминал, 2010) [BDRip - AVC, Дублированный + Оригинал + SUB] Мальчики-налетчики / Takers (Джон Льюсенхоп, боевик, криминал, 2010) [BDRip - AVC, Дублированный + Оригинал + SUB] " />

Аплоадер: Админ, дата: 18-07-2012, 19:48, торрент скачан: 359 раз

Понравилась раздача? Посмотрите эти:
  • Грязь / Filth (Джон С. Бейрд, криминал, драма, комедия, 2013) [BDRip-AVC, ...
  • Погнали! / Getaway (Кортни Соломон, боевик, криминал, 2013) [BDRip 720p, Пр ...
  • Пастырь / Priest (Скотт Чарльз Стюарт, ужасы, фантастика, боевик, триллер, ...
  • Погоня / Abduction (Джон Синглтон, боевик, триллер, драма, детектив, 2011) ...
  • РЭД / RED (Роберт Швентке, боевик, комедия, криминал, 2010 г.) [HDRip-AVC, ...
  • Убить по расписанию / Ticking Clock (Эрни Барбараш, фантастика, боевик, три ...
  • Мальчики-налётчики / Takers (Джон Льюсенхоп, боевик, криминал, 2010) [HDRip ...
  • Город воров / The Town [Театральная версия / Theatrical Cut] (Бен Аффлек / ...
  • Робин Гуд [Режиссёрская версия] / Robin Hood [Directors Cut] (Ридли Скотт / ...
  • Сутенер / Le mac (Паскаль Бюрдо / Pascal Bourdiaux, комедия, криминал, 2010 ...
  • Второй шанс / Gridiron Gang (Фил Джоану / Phil Joanou, драма, криминал, спо ...
  • Центурион / Centurion (Нил Маршалл / Neil Marshall, Боевик, триллер, драма, ...
  • Мальчики-налётчики / Takers (Джон Льюсенхоп, боевик, криминал, 2010) [BDRip ...
  • Значит, война / This Means War (МакДжи, боевик, мелодрама, комедия, 2012) [ ...
  • Мачо и ботан / 21 Jump Street (Фил Лорд, Крис Миллер, боевик, комедия, 2012 ...
  • Mylene Farmer / Du Temps [2011, Pop, HDTVRip]
  • Mylene Farmer / Bleu Noir [2011, Pop, HDTVRip]
  • Мальчики-налетчики / Takers (Джон Льюсенхоп, боевик, триллер, криминал, 201 ...
  • Мальчики-налетчики / Takers (Джон Льюсенхоп, боевик, триллер, криминал , 20 ...
  • Мальчики-налетчики / Takers (Джон Льюсенхоп, боевик, триллер, криминал, 201 ...
  • Мальчики-налетчики / Takers (Джон Льюсенхоп, боевик, триллер, криминал, 201 ...
  • Мальчики-налетчики / Takers (Джон Льюсенхоп / John Luessenhop, боевик, трил ...
  • Мальчики-налётчики / Takers (Джон Льюсенхоп, боевик, криминал, 2010) [BDRip ...
  • Мальчики-налетчики / Takers (Джон Льюсенхоп, Боевик, 2010) [BDRip, Професси ...
  • Мальчики-налетчики / Takers (Джон Льюсенхоп, боевик, криминал, 2010) [BDRip ...
  • Информация
    Посетители, находящиеся в группе Гости, не могут оставлять комментарии к данной публикации.