вход на сайт

Имя пользователя :
Пароль :

Восстановление пароля Регистрация
Рождённый свободным / The Colt (Елена Ланская, драма, боевик, история, 2005) [HDRip, Профессиональный (многоголосый закадровый)]
Рейтинг:
(голосов: 1)



[img]{THEME}/images/logopost.png[/img]



Рождённый свободным / The Colt

Год выпуска: 2005
Страна: США
Производство: Hallmark Entertainment
Жанр: гангстерская комедия, драма, триллер и т. д.

Режиссёр: Елена Ланская / Yelena Lanskaya
В ролях: Райан Мерриман, Стив Бачич, Уильям МакДональд, Дарси Белшер, Скотт Хейндл, Питер ЛаКруа, Хэйг Сазерленд, Колби Йоханнсон, Мэттью Карри Холмс, Энтони Гербрандт и другие

Перевод: Профессиональный (многоголосый закадровый)
Субтитры: нет

Описание: В разгар боёв Гражданской войны у любимой кобылы Джима Рэбба, бойца армии северян, рождается очаровательный жеребёнок. Рэббу приказывают пристрелить его, но он не подчиняется, хотя с жеребёнком у него немало хлопот. В это жестокое время жеребёнок служит Рэббу утешением и символом надежды, которая ведёт бойцов Первой Кавалерии на их нелёгком пути...

IMDB: рейтинг IMDb: 6.50 (286)
КиноПоиск: рейтинг 8.061 (66)


Качество: HDRip
Продолжительность: 01:23:49 час.

Формат: AVI
Видео кодек: Xvid
Аудио кодек: MPEG Audio Layer 3
Видео: Xvid, 656x368, 23.98fps, 1100kbps, 0.19bit/pixel
Аудио: 48 kHz, MPEG Layer 3, 2 ch, ~128.00 kbps avg

"MediaInfo" ▼Общее
Полное имя : E:UsersТемирланDesktopФильмыRozhdennyj svobodnym (2005) - HDRip by TaniaVGTU.avi
Формат : AVI
Формат/Информация : Audio Video Interleave
Размер файла : 742 Мбайт
Продолжительность : 1 ч. 23 м.
Общий поток : 1238 Кбит/сек
Программа кодирования : VirtualDubMod 1.5.10.2 (build 2540/release)
Библиотека кодирования : VirtualDubMod build 2540/release

Видео
Идентификатор : 0
Формат : MPEG-4 Visual
Профиль формата : Advanced [email protected]
Параметр BVOP формата : 1
Параметр QPel формата : Нет
Параметр GMC формата : Без точки перехода
Параметр матрицы формата : Default (H.263)
Идентификатор кодека : XVID
Идентификатор кодека/Подсказка : XviD
Продолжительность : 1 ч. 23 м.
Битрейт : 1101 Кбит/сек
Ширина : 656 пикселей
Высота : 368 пикселей
Соотношение сторон : 16:9
Частота кадров : 23,976 кадра/сек
Цветовое пространство : YUV
Субдискретизация насыщенности : 4:2:0
Битовая глубина : 8 бит
Тип развёртки : Прогрессивная
Метод сжатия : С потерями
Бит/(Пиксели*Кадры) : 0.190
Размер потока : 660 Мбайт (89%)
Библиотека кодирования : XviD 1.2.1 (UTC 2008-12-04)

Аудио
Идентификатор : 1
Формат : MPEG Audio
Версия формата : Version 1
Профиль формата : Layer 3
Идентификатор кодека : 55
Идентификатор кодека/Подсказка : MP3
Продолжительность : 1 ч. 23 м.
Вид битрейта : Постоянный
Битрейт : 128 Кбит/сек
Каналы : 2 канала
Частота : 48,0 КГц
Метод сжатия : С потерями
Размер потока : 76,7 Мбайт (10%)
Выравнивание : Соединение по промежуткам
Продолжительность промежутка : 42 мс. (1,00 видеокадр)
Время предзагрузки промежутка : 504 мс.
Библиотека кодирования : LAME3.98r
Настройки программы : -m s -V 4 -q 2 -lowpass 17 -b 128



8764be0ba5580c4e3ca3d194943808c434424d1fРождённый свободным / The Colt (Елена Ланская, драма, боевик, история, 2005) [HDRip, Профессиональный (многоголосый закадровый)] Рождённый свободным / The Colt (Елена Ланская, драма, боевик, история, 2005) [HDRip, Профессиональный (многоголосый закадровый)] " />

Аплоадер: Админ, дата: 9-07-2012, 10:50, торрент скачан: 359 раз

Понравилась раздача? Посмотрите эти:
  • Миллионы Брюстера / Brewsters Millions (Уолтер Хилл, Комедия, 1985) [HDTVRi ...
  • Грязная кампания за честные выборы / The Campaign (Джей Роуч , Комедия,201 ...
  • Слежка / The Letter (Джей Ананья, Триллер, драма, 2012) [DVDRip, Профессион ...
  • Жил-был тигр / Ek Tha Tiger (Кабир Кхан, боевик, триллер , 2012) [ HDRip, ...
  • Легенда о МорДу / The Legend of MorDu (Брайан Ларсен, Короткометражный, ска ...
  • Злые птицы: Хэллоуин / Angry Birds: HamOWeen (Джей Ройвайнен, Мультфильм, к ...
  • Кажется, я люблю свою жену / I Think I Love My Wife (Крис Рок, Драма, мелод ...
  • Темный сахар / Brown Sugar (Рик Фамуйива, Драма, мелодрама, комедия, музыка ...
  • Огненный шторм / Firestorm (Дин Семлер, Боевик, Триллер, 1998) [DVDRip, Про ...
  • Бог любви / God of Love (Люк Мэзени, Короткометражка, фэнтези, комедия, мел ...
  • Любовь по расписанию / Поезд (Сергей Мезенцев, мелодрама, 2012) [HDTVRip, Н ...
  • Вечерний Ургант // Сезон 2. Выпуск 63 (ТВ-шоу, 20.12.2012) [SATRip, Не треб ...
  • Кейси Джонс / Casey Jones (Иларион Бэнкс, Короткометражка, фэнтези, боевик, ...
  • Заместитель / Il supplente (Андреа Жублин, Короткометражка, комедия, 2007) ...
  • Дорога на... / Road to (Таисия Игуменцева, Комедия, короткометражный, 2011) ...
  • Покорить высоту / Take It to the Limit (Сэм Кит / Sam Kieth, семейный, 2000 ...
  • Светлячок. Воссоединение Коричневых плащей к 10 годовщине / Firefly 10th An ...
  • А что насчет тебя? / How About You (Энтони Бирн, Драма, комедия, 2007) [DVD ...
  • Брат якудзы / Brother (Такеши Китано, триллер, драма, криминал, 2000) [HDRi ...
  • Детский душ / Baby Shower (Pablo Illanes, Ужасы, 2011) [DVDRip, Любительски ...
  • Привет, Джули! / Flipped (Роб Райнер, драма, мелодрама, комедия , 2010) [HD ...
  • Хранители сокровищ / Treasure Guards (Айэйн Б. МакДональд, приключения, 201 ...
  • Пожирая живых / Ночь зомби / Zombie Night (Дэвид Дж. Фрэнсис, Ужасы, комеди ...
  • Pitbull / Bon Bon [2010, Pop, HDRip]
  • Бюро находок : Потерянный и найденный / Lost and Found (Филип Хант, коротко ...
  • Информация
    Посетители, находящиеся в группе Гости, не могут оставлять комментарии к данной публикации.