вход на сайт

Имя пользователя :
Пароль :

Восстановление пароля Регистрация
Защитник / Safe (Боаз Якин / Boaz Yakin, боевик, криминал, 2012) [BDRip-AVC, Профессиональный (полное дублирование)]
Рейтинг:
(голосов: 1)



[img]{THEME}/images/logopost.png[/img]



Защитник / Safe
«Он - её единственный шанс. Она - его последняя надежда.»

Год выпуска: 2012
Страна: США
Производство: IM Global, Automatik Entertainment, Lawrence Bender Productions
Жанр: боевик, криминал

Режиссёр: Боаз Якин / Boaz Yakin
В ролях: Джейсон Стэйтем, Катрин Чан, Роберт Джон Бёрк, Джеймс Хонг, Энсон Маунт, Крис Сарандон, Сандор Текси, Джозеф Сикора, Игорь Жижикин, Регги Ли...

Перевод: Дублированный
Субтитры: Отсутствуют

Описание: Бывший агент элитных спецслужб спасает девочку с уникальными способностями из цепких лап Нью-Йоркской мафии. Она - единственная, кто знает код от сейфа, где хранятся миллионы долларов китайских Триад. И теперь только профессионал может защитить ее от мафии, азиатских ассасинов и коррумпированных полицейских. На улицах Нью-Йорка развернется погоня за девочкой, которой очень повезло с Защитником…Дата премьеры (мир): 2 марта 2012
Дата премьеры (РФ): 26 апреля 2012, «UPI»
Качество: BDRip - AVC
Продолжительность: 01:30:22

Формат: MKV
Видео кодек: x264
Аудио кодек: AC3
Видео: 1040x442 (2.35:1), 25.000 fps, 1 830 kbps avg, 0.166 bit/pixel
Аудио: 48 kHz, AC3, 3/2 (L,C,R,l,r) + LFE ch, ~384.00 kbps avg

MediaInfo ▼TextОбщее
Уникальный идентификатор : 191451819250830073808129208271318381333 (0x900847770BF5280A89CC189517397315)
Полное имя : D:LZawitnik.2012.BDRip.x264.ac3.mkv
Формат : Matroska
Версия формата : Version 2
Размер файла : 1,45 Гбайт
Продолжительность : 1 ч. 34 м.
Общий поток : 2210 Кбит/сек
Дата кодирования : UTC 2012-05-29 04:19:31
Программа кодирования : mkvmerge v3.2.0 (Beginnings) built on Feb 12 2010 16:46:17
Библиотека кодирования : libebml v0.7.9 + libmatroska v0.8.1

Видео
Идентификатор : 1
Формат : AVC
Формат/Информация : Advanced Video Codec
Профиль формата : [email protected]
Параметр CABAC формата : Да
Параметр ReFrames формата : 11 кадров
Идентификатор кодека : V_MPEG4/ISO/AVC
Продолжительность : 1 ч. 34 м.
Битрейт : 1830 Кбит/сек
Ширина : 1040 пикселей
Высота : 442 пикселя
Соотношение сторон : 2,35:1
Частота кадров : 24,000 кадра/сек
Цветовое пространство : YUV
Субдискретизация насыщенности : 4:2:0
Битовая глубина : 8 бит
Тип развёртки : Прогрессивная
Бит/(Пиксели*Кадры) : 0.166
Размер потока : 1,17 Гбайт (81%)
Библиотека кодирования : x264 core 120 r2164 da19765
Настройки программы : cabac=1 / ref=11 / deblock=1:-2:-1 / analyse=0x3:0x113 / me=umh / subme=11 / psy=1 / psy_rd=0.95:0.05 / mixed_ref=1 / me_range=32 / chroma_me=1 / trellis=2 / 8x8dct=1 / cqm=0 / deadzone=21,11 / fast_pskip=0 / chroma_qp_offset=-3 / threads=6 / sliced_threads=0 / nr=0 / decimate=1 / interlaced=0 / bluray_compat=0 / constrained_intra=0 / bframes=8 / b_pyramid=2 / b_adapt=1 / b_bias=0 / direct=1 / weightb=1 / open_gop=0 / weightp=2 / keyint=240 / keyint_min=22 / scenecut=40 / intra_refresh=0 / rc=2pass / mbtree=0 / bitrate=1830 / ratetol=1.0 / qcomp=0.70 / qpmin=10 / qpmax=61 / qpstep=4 / cplxblur=20.0 / qblur=0.5 / ip_ratio=1.40 / pb_ratio=1.30 / aq=2:0.70
Язык : English
Default : Нет
Forced : Нет

Аудио
Идентификатор : 2
Формат : AC-3
Формат/Информация : Audio Coding 3
Расширение режима : CM (complete main)
Идентификатор кодека : A_AC3
Продолжительность : 1 ч. 34 м.
Вид битрейта : Постоянный
Битрейт : 384 Кбит/сек
Каналы : 6 каналов
Расположение каналов : Front: L C R, Side: L R, LFE
Частота : 48,0 КГц
Битовая глубина : 16 бит
Метод сжатия : С потерями
Размер потока : 259 Мбайт (17%)
Заголовок : Дубляж
Язык : Russian
Default : Да
Forced : Нет





7745a3d75c557bb4cbf2fcf8ff2a80f95e20e60dЗащитник / Safe (Боаз Якин / Boaz Yakin, боевик, криминал, 2012) [BDRip-AVC, Профессиональный (полное дублирование)] Защитник / Safe (Боаз Якин / Boaz Yakin, боевик, криминал, 2012) [BDRip-AVC, Профессиональный (полное дублирование)] " />

Аплоадер: Админ, дата: 29-05-2012, 12:51, торрент скачан: 359 раз

Понравилась раздача? Посмотрите эти:
  • Поймай толстуху, если сможешь [Театральная версия] / Identity Thief [Theatr ...
  • Паркер / Parker (Тейлор Хэкфорд, Боевик, триллер, криминал, 2013) [BDRip-AV ...
  • Драйв / Drive (Николас Виндинг Рёфн, боевик, триллер, драма, криминал, 2011 ...
  • Профессионал / Killer Elite (Гэри МакКендри, боевик, 2011) [BDRip-AVC, Проф ...
  • Переростки / The Inbetweeners (Бен Палмер, Комедия, 2011) [BDRip-AVC, Профе ...
  • Защитник / Safe (Боаз Якин, боевик, криминал, 2012) [BDRip-AVC, Профессиона ...
  • Защитник / Safe (Боаз Якин, Боевик, 2012) [BDRip-AVC, Дубляж]
  • Защитник / Safe (Боаз Якин, боевик, криминал, 2012) [HDRip-AVC, Дублированн ...
  • Защитник / Safe (Боаз Якин, боевик, триллер, криминал, 2012) [BDRip - AVC, ...
  • Переростки / The Inbetweeners (Бен Палмер / Ben Palmer, комедия, 2011) [BDR ...
  • Схватка / The Grey (Джо Карнахан, боевик, триллер, драма, приключения, 2012 ...
  • Защитник / Safe (Боаз Якин, боевик, криминал, 2012) [BDRip 720p, Профессион ...
  • Защитник / Safe (Боаз Якин, Боевик, криминал, 2012) [BDRip-AVC, Профессиона ...
  • Защитник / Safe (Боаз Якин, Боевик, криминал, 2012) [BD-Remux 1080p [USA Tr ...
  • Защитник / Safe (Боаз Якин / Boaz Yakin, боевик, криминал, 2012) [BDRip 108 ...
  • Петля времени / Looper (Райан Джонсон, Фантастика, боевик, триллер, кримина ...
  • Защитник / Safe (Боаз Якин, боевик, криминал, 2012г) [320x240] [DVDRip, Дуб ...
  • Защитник / Safe (Боаз Якин, боевик, криминал, 2012) [DVD9, Профессиональный ...
  • Защитник / Safe (Боаз Якин, боевик, криминал, 2012) [DVD5, Профессиональный ...
  • [Phone, iPod] Защитник / Safe (Боаз Якин, боевик, криминал, 2012г) [480x320 ...
  • Защитник / Safe (Боаз Якин / Boaz Yakin / боевик, криминал / 2012) [640х272 ...
  • Защитник / Safe (Боаз Якин, боевик, криминал, 2012) [HDRip, Дублированный]
  • Защитник / Safe (Боаз Якин, боевик, криминал, 2012) [Blu-ray Disc [RUS], по ...
  • Защитник / Safe (Боаз Якин, боевик, криминал, 2012) [BDRip, Профессиональны ...
  • Защитник / Safe (Боаз Якин, боевик, триллер, криминал, 2012) [BDRip, Авторс ...
  • Информация
    Посетители, находящиеся в группе Гости, не могут оставлять комментарии к данной публикации.