вход на сайт

Имя пользователя :
Пароль :

Восстановление пароля Регистрация
Под откос / Derailed (Боб Мисиоровски, боевик, триллер, 2002) [HDRip-AVC, Профессиональный (двухголосый, закадровый) + Авторский (одноголосый, закадровый) (Л. Володарский) + Оригинал + Sub]
Рейтинг:
(голосов: 1)



[img]{THEME}/images/logopost.png[/img]



Под откос / Derailed
«A deadly Virus... Only one way to stop it!»

Год выпуска: 2002
Страна: США , Аруба
Производство: 777 Films Corporation
Жанр: боевик, триллер

Режиссёр: Боб Мисиоровски
В ролях: Жан-Клод Ван Дамм, Томас Арана, Лаура Хэрринг, Сьюзэн Гибни, Люси Дженнер, Джессика Боуман, Кристофер Ван Варенберг, Джон Бишоп, Бинки ван Билдербик, Дэйтон Калли



Перевод: Профессиональный (двухголосый, закадровый) + Оригинал
+ Авторский (одноголосый, закадровый) (Л. Володарский)
Субтитры: русские (srt), английские (srt)

Описание: Новое спецзадание по плечу гениальному оперативнику НАТО Жаку Кристофу. Он должен сопроводить из Словакии в Германию неуловимую воровку Галину, но он не подозревает, что эта рутинная работа станет самой опасной в его карьере.

Уйдя от погони на узких улочках Братиславы, отчаянные шпионы садятся в поезд до Мюнхена и становятся заложниками банды террористов, чей вожак Мэйсон хочет любой ценой завладеть секретным грузом Галины — новым опаснейшим вирусом оспы. Вскоре Жак понимает, что от его решительных действий зависит не только жизнь пассажиров экспресса, но и судьба всего мира, который охватит страшная эпидемия, если он не обезвредит маньяка, жаждущего власти над миром.





Дата премьеры (мир): 19 мая 2002

Качество: HDRip-AVC
Продолжительность: 01:28:33

Формат: MKV
Видео кодек: X264
Аудио кодек: AC3
Видео: 1020x548 (1.86:1), 24,000 fps, ~2726 kbps avg, 0.203 bit/pixel
Аудио1: [RUS] 48.0 KHz, 6 channels (Front: L C R, Side: L R, LFE), 448.00 kbps avg |DVO|
Аудио2: [RUS] 48.0 KHz, 2 channels (Front: L R), 192.00 kbps avg |AVO|
Аудио3: [ENG] 48.0 KHz, 2 channels (Front: L R), 192.00 kbps avg |Оригинал|
MediaInfo ▼TextFormat : Matroska
Format version : Version 2
File size : 2.20 GiB
Duration : 1h 28mn
Overall bit rate : 3 557 Kbps
Movie name : (2002) Под откос
Encoded date : UTC 2011-06-23 13:28:19
Writing application : mkvmerge v4.5.0 (Speed of Light) сборка от Feb 1 2011 02:10:32
Writing library : libebml v1.2.0 + libmatroska v1.1.0

Video
ID : 1
Format : AVC
Format/Info : Advanced Video Codec
Format profile : [email protected]
Format settings, CABAC : Yes
Format settings, ReFrames : 10 frames
Codec ID : V_MPEG4/ISO/AVC
Duration : 1h 28mn
Bit rate : 2 726 Kbps
Width : 1 020 pixels
Height : 548 pixels
Display aspect ratio : 1.861
Frame rate : 24.000 fps
Color space : YUV
Chroma subsampling : 4:2:0
Bit depth : 8 bits
Scan type : Progressive
Bits/(Pixel*Frame) : 0.203
Stream size : 1.64 GiB (75%)
Title : (2002) Под откос
Writing library : x264 core 114 r1924 08d04a4
Encoding settings : cabac=1 / ref=10 / deblock=1:-2:-1 / analyse=0x3:0x133 / me=umh / subme=10 / psy=1 / psy_rd=1.00:0.10 / mixed_ref=1 / me_range=32 / chroma_me=1 / trellis=2 / 8x8dct=1 / cqm=0 / deadzone=21,11 / fast_pskip=1 / chroma_qp_offset=-3 / threads=3 / sliced_threads=0 / nr=0 / decimate=1 / interlaced=0 / constrained_intra=0 / bframes=10 / b_pyramid=2 / b_adapt=2 / b_bias=0 / direct=3 / weightb=1 / open_gop=0 / weightp=2 / keyint=250 / keyint_min=24 / scenecut=40 / intra_refresh=0 / rc_lookahead=65 / rc=2pass / mbtree=1 / bitrate=2726 / ratetol=1.0 / qcomp=0.65 / qpmin=0 / qpmax=69 / qpstep=4 / cplxblur=20.0 / qblur=0.5 / ip_ratio=1.40 / aq=1:1.00
Language : English
Default : Yes
Forced : No

Audio #1
ID : 2
Format : AC-3
Format/Info : Audio Coding 3
Mode extension : CM (complete main)
Codec ID : A_AC3
Duration : 1h 28mn
Bit rate mode : Constant
Bit rate : 448 Kbps
Channel(s) : 6 channels
Channel positions : Front: L C R, Side: L R, LFE
Sampling rate : 48.0 KHz
Bit depth : 16 bits
Compression mode : Lossy
Stream size : 284 MiB (13%)
Title : Профессиональный (двухголосый, закадровый)
Language : Russian
Default : Yes
Forced : No

Audio #2
ID : 3
Format : AC-3
Format/Info : Audio Coding 3
Mode extension : CM (complete main)
Codec ID : A_AC3
Duration : 1h 28mn
Bit rate mode : Constant
Bit rate : 192 Kbps
Channel(s) : 2 channels
Channel positions : Front: L
2e6aa06f5be561f2b4f7fd25029cdf550fc57898Под откос / Derailed (Боб Мисиоровски, боевик, триллер, 2002) [HDRip-AVC, Профессиональный (двухголосый, закадровый) + Авторский (одноголосый, закадровый) (Л. Володарский) + Оригинал + Sub] Под откос / Derailed (Боб Мисиоровски, боевик, триллер, 2002) [HDRip-AVC, Профессиональный (двухголосый, закадровый) + Авторский (одноголосый, закадровый) (Л. Володарский) + Оригинал + Sub] " />

Аплоадер: Админ, дата: 27-05-2012, 04:00, торрент скачан: 359 раз

Понравилась раздача? Посмотрите эти:
  • Под откос / Derailed (Боб Мисиоровски, Боевик, триллер, 2002) [HDRip, Профе ...
  • Под откос / Derailed (Боб Мисиоровски, Боевик, триллер, 2002) [HDRip-AVC, П ...
  • Водитель / The Driver (Уолтер Хилл, Боевик, триллер, драма, криминал, 1978) ...
  • Убить по расписанию / Ticking Clock (Эрни Барбараш, фантастика, боевик, три ...
  • Класс 1999 года / Class of 1999 (Марк Л. Лестер, ужасы, фантастика, боевик, ...
  • Цельнометаллическая оболочка / Full Metal Jacket (Стэнли Кубрик, драма, вое ...
  • Кодер / Cypher (Винченцо Натали, фантастика, триллер, детектив, 2002) [BDRi ...
  • Максимальный риск / Maximum Risk (Ринго Лам, боевик, триллер, криминал, при ...
  • День независимости / Independence Day (Роланд Эммерих, фантастика, боевик, ...
  • Поворот не туда 4 / Wrong Turn 4 (Деклан О’Брайэн, ужасы, боевик, детектив, ...
  • Репортаж из преисподней / [REC] 2 (Жауме Балагуэро, Пако Пласа, ужасы, трил ...
  • Остановка 2: Не оглядывайся назад / Rest Stop: Dont Look Back (Шоун Папазян ...
  • Пир / Feast (Джон Гулажер, ужасы, боевик, триллер, комедия, 2005) [BDRip-AV ...
  • Апокалипсис сегодня / Apocalypse Now (Френсис Форд Коппола / Francis Ford C ...
  • Спаун / Отродие / Spawn (Марк Э. З. Диппе, фэнтези, боевик, триллер, 1997) ...
  • Пришелец / Impostor (Гэри Фледер, фантастика, боевик, триллер, драма, 2001) ...
  • Повторяющие / Repeaters (Карл Бессай, фантастика, боевик, триллер, драма, к ...
  • Охота за "Красным Октябрём" / The Hunt for "Red October" (Джон МакТирнан, б ...
  • Бомж с дробовиком / Hobo with a Shotgun (Джейсон Айзенер / Jason Eisener, С ...
  • Далеко-далеко / Far and Away (Рон Ховард, драма, мелодрама, приключения, ве ...
  • Китайский квартал / Chinatown (Роман Полански, Триллер, драма, криминал, де ...
  • Пудра / Powder (Виктор Сальва, фантастика, фэнтези, драма, 1995) [HDTVRip 7 ...
  • Викинги / Outlander (Ховард МакКейн, Фантастика, боевик, приключения, 2008) ...
  • Mylene Farmer / Du Temps [2011, Pop, HDTVRip]
  • Сверхновый Супермен / All-Star Superman (Сэм Лью, мультфильм, фантастика, б ...
  • Информация
    Посетители, находящиеся в группе Гости, не могут оставлять комментарии к данной публикации.