вход на сайт

Имя пользователя :
Пароль :

Восстановление пароля Регистрация
Подарок / Echelon Conspiracy (Грег Маркс, боевик, триллер, криминал, детектив, 2009) [BDRip-AVC, Профессиональный (полное дублирование) (рус, укр) + Оригинал + Субтитры]
Рейтинг:
(голосов: 1)



[img]{THEME}/images/logopost.png[/img]



Подарок / Echelon Conspiracy
«Не дай себя поймать»

Год выпуска: 2009 г.
Страна: США
Производство: Dark Castle Entertainment, Mobicom Entertainment, Zinc Entertainment Inc.
Жанр: Боевик, триллер, криминал, детектив

Режиссёр: Грег Маркс / Greg Marcks
В ролях: Шэйн Уэст, Эдвард Бёрнс, Винг Реймз, Мартин Шин, Стивен Элдер, Сандра Де Суза, Грегори Дональдсон, Андреа Энрайт, Тамара Фельдман, Гоша Куценко

Перевод: Профессиональный (полное дублирование) + Профессиональный (полное дублирование) Украинский + Оригинал
Субтитры: Русские, английские

Описание:
Что будет, если Вы получите подарок, который выполнит все Ваши желания. Подарок, от которого Вы не сможете отказаться, но за который Вам придется поплатиться. Обычному парню Максу Питерсону судьба преподносит именно такой подарок. Его жизнь круто меняется …. Но, как долго он сможет наслаждаться привалившим счастьем и, какой ценой оно ему обернется?





Качество: BDRip-AVC (Исходник: Blu-Ray Remux)
Продолжительность: 01:45:17 час.

Формат: MKV
Видео кодек: x264
Аудио кодек: AC3
Видео: 1024x426 (2.40:1), 23,976 fps, Advanced Video Codec ([email protected]) ~3 500 kbps avg, 0.335 bit/pixel
Аудио #1: 48 kHz, AC3 Dolby Digital, 3/2 (L,C,R,l,r) + LFE ch, ~448 kbps avg | Дубляж
Аудио #2: 48 kHz, AC3 Dolby Digital, 3/2 (L,C,R,l,r) + LFE ch, ~448 kbps avg | Дубляж Украинский
Аудио #3: 48 kHz, AC3 Dolby Digital, 3/2 (L,C,R,l,r) + LFE ch, ~448 kbps avg | Оригинал (Английский)

Дата премьеры (мир): 27 февраля 2009
Дата премьеры (РФ): 12 марта 2009, «Профит Синема Интернешнл»

MediaInfo ▼TextФормат : Matroska
Версия формата : Version 2
Размер файла : 3,56 Гбайт
Продолжительность : 1 ч. 45 м.
Общий поток : 4843 Кбит/сек
Название фильма : Подарок / Echelon Conspiracy [2009]
Дата кодирования : UTC 2012-05-23 13:59:04
Программа кодирования : mkvmerge v5.3.0 (I could have danced) built on Feb 9 2012 10:38:07
Библиотека кодирования : libebml v1.2.3 + libmatroska v1.3.0

Видео
Идентификатор : 1
Формат : AVC
Формат/Информация : Advanced Video Codec
Профиль формата : [email protected]
Параметр CABAC формата : Да
Параметр ReFrames формата : 8 кадров
Идентификатор кодека : V_MPEG4/ISO/AVC
Продолжительность : 1 ч. 45 м.
Битрейт : 3500 Кбит/сек
Ширина : 1024 пикселя
Высота : 426 пикселей
Соотношение сторон : 2,40:1
Частота кадров : 23,976 кадра/сек
Цветовое пространство : YUV
Субдискретизация насыщенности : 4:2:0
Битовая глубина : 8 бит
Тип развёртки : Прогрессивная
Бит/(Пиксели*Кадры) : 0.335
Размер потока : 2,50 Гбайт (70%)
Заголовок : by 0ptimus
Библиотека кодирования : x264 core 119 r2106 07efeb4
Настройки программы : cabac=1 / ref=8 / deblock=1:-2:-1 / analyse=0x3:0x113 / me=umh / subme=11 / psy=1 / psy_rd=1.00:0.20 / mixed_ref=1 / me_range=32 / chroma_me=1 / trellis=2 / 8x8dct=1 / cqm=0 / deadzone=21,11 / fast_pskip=0 / chroma_qp_offset=-3 / threads=3 / sliced_threads=0 / nr=0 / decimate=0 / interlaced=0 / bluray_compat=0 / constrained_intra=0 / bframes=6 / b_pyramid=2 / b_adapt=2 / b_bias=0 / direct=3 / weightb=1 / open_gop=0 / weightp=2 / keyint=240 / keyint_min=23 / scenecut=40 / intra_refresh=0 / rc_lookahead=40 / rc=2pass / mbtree=0 / bitrate=3500 / ratetol=1.0 / qcomp=0.60 / qpmin=0 / qpmax=69 / qpstep=4 / cplxblur=20.0 / qblur=0.5 / vbv_maxrate=50000 / vbv_bufsize=50000 / nal_hrd=none / ip_ratio=1.40 / pb_ratio=1.30 / aq=1:1.00
Язык : English
Default : Да
Forced : Нет

Аудио #1
Идентификатор : 2
Формат : AC-3
Формат/Информация : Audio Coding 3
Расширение режима : CM (complete main)
Параметр Endianness формата : Big
Идентификатор кодека : A_AC3
Продолжительность : 1 ч. 45 м.
Вид битрейта : Постоянный
Битрейт : 448 Кбит/сек
Каналы : 6 каналов
Расположение каналов : Front: L C R, Side: L R, LFE
Частота : 48,0 КГц
Битовая глубина : 16 бит
Метод сжатия : С потерями
Размер потока : 337 Мбайт (9%)
Заголовок : Дубляж [рус.]
Язык : Russian
Default : Да
Forced : Нет

Аудио #2
Идентификатор : 3
Формат : AC-3
Формат/Информация : Audio Coding 3
Расширение
409ea0761ecf240a4f3234612d2e964cc81b24beПодарок / Echelon Conspiracy (Грег Маркс, боевик, триллер, криминал, детектив, 2009) [BDRip-AVC, Профессиональный (полное дублирование) (рус, укр) + Оригинал + Субтитры] Подарок / Echelon Conspiracy (Грег Маркс, боевик, триллер, криминал, детектив, 2009) [BDRip-AVC, Профессиональный (полное дублирование) (рус, укр) + Оригинал + Субтитры] " />

Аплоадер: Админ, дата: 23-05-2012, 23:00, торрент скачан: 359 раз

Понравилась раздача? Посмотрите эти:
  • Двойной агент / The Double (Майкл Брандт, боевик, триллер, драма, криминал, ...
  • Погнали! / Getaway (Кортни Соломон, боевик, криминал, 2013) [BDRip-AVC, Про ...
  • Война миров Z / World War Z [Theatrical Cut] (Марк Форстер, ужасы, фантасти ...
  • Стукач / Snitch (Рик Роман Во, Триллер, драма, 2013) [BDRip-AVC, Дубляж, Ор ...
  • Летучий отряд Скотланд-Ярда / The Sweeney (Ник Лав, Боевик, драма, криминал ...
  • Вампирша / Rise (Себастьян Гутиеррес, ужасы, боевик, триллер, детектив, 200 ...
  • Фантомы / Shutter (Масаюки Очиай, ужасы, триллер, детектив, 2008) [BDRip-AV ...
  • Поймай толстуху, если сможешь [Театральная версия] / Identity Thief [Theatr ...
  • Электра / Elektra (Роб Боумен, Фэнтези, боевик, триллер, криминал, 2005) [B ...
  • Перелом / Fracture (Грегори Хоблит, Триллер, драма, криминал, детектив, 200 ...
  • Паркер / Parker (Тейлор Хэкфорд, Боевик, триллер, криминал, 2013) [BDRip-AV ...
  • Возвращение героя / The Last Stand (Ким Чжи Ун, боевик, триллер, криминал, ...
  • Ангелы Чарли / Charlies Angels (МакДжи, Боевик, триллер, комедия, криминал, ...
  • Белая Мгла / Whiteout (Доминик Сена / Dominic Sena, боевик, триллер, кримин ...
  • Толстяк на ринге / Here Comes the Boom (Фрэнк Корачи, Боевик, комедия, 2012 ...
  • Драйв / Drive (Николас Виндинг Рёфн, боевик, триллер, драма, криминал, 2011 ...
  • Драйв / Drive (Николас Виндинг Рёфн, боевик, триллер, драма, криминал, 2011 ...
  • Профессионал / Killer Elite (Гэри МакКендри, боевик, 2011) [BDRip-AVC, Проф ...
  • 11:14 (Одиннадцать четырнадцать) / 11:14 (Elevenfourteen) (Грег Маркс, трил ...
  • Заложница / Taken (Пьер Морель, Боевик, триллер, криминал, 2008) [BDRip-AVC ...
  • Я, Алекс Кросс / Alex Cross (Роб Коэн, Боевик, триллер, криминал, детектив, ...
  • Петля времени / Looper (Райан Джонсон, Фантастика, боевик, триллер, кримина ...
  • Подарок / Echelon Conspiracy (Грег Маркс, Боевик, триллер, детектив, 2009) ...
  • Подарок / Echelon Conspiracy (Грег Маркс, Боевик, триллер, детектив, 2009) ...
  • Подарок / Echelon Conspiracy (Грег Мэркс / Greg Marcks, боевик, триллер, де ...
  • Информация
    Посетители, находящиеся в группе Гости, не могут оставлять комментарии к данной публикации.