вход на сайт

Имя пользователя :
Пароль :

Восстановление пароля Регистрация
Спецназ города ангелов / S.W.A.T. (Кларк Джонсон, Детектив, боевик, 2003) [BDRip-AVC, Дубляж]
Рейтинг:
(голосов: 1)



[img]{THEME}/images/logopost.png[/img]



Спецназ города ангелов / S.W.A.T.

Год выпуска: 2003
Страна: США
Производство: Columbia Pictures Corporation, Original Film, Camelot Pictures
Жанр: Детектив, боевик

Режиссёр: Кларк Джонсон
В ролях: Сэмюэл Л. Джексон, Колин Фаррелл, Мишель Родригес, LL Кул Джей, Джош Чарльз, Джереми Реннер, Брайан Ван Холт, Оливье Мартинес, Рег Э. Кэти, Ларри Поиндекстер

Перевод: Профессиональный (полное дублирование)

Субтитры: Нет

Описание: В полиции США существует множество видов спецназа, но самым крутым по праву считается Особое подразделение, отбор в ряды которого является настоящим испытанием. Джима Стрита из лос-анджелесской полиции зачисляют в состав Особого подразделения.
После обучения и тренировок молодое пополнение во главе с командиром Хондо ждет первое испытание – перевозка известного наркобарона из тюрьмы в руки ФБР.
Простое на первый взгляд задание осложняется тем, что богатый пленник назначает за свое освобождение невероятный куш – 100 миллионов долларов! Поэтому на всем пути следования подразделению предстоит отбивать непрекращающиеся атаки желающих получить награду…Качество: BDRip-AVC
Продолжительность: 01:57:15

Формат: MKV
Видео кодек: H.264
Аудио кодек: AC3
Видео: 1024x432 (2.35:1), 23.976 fps, H.264 ~1390 kbps, Bits/(Pixel*Frame) 0.131
Аудио: 48 kHz, AC3 Dolby Digital, 6 ch, ~384 kbps kbps

"MediaInfo" ▼TextGeneral
UniqueID : 236586075912164661126143871609926530092 (0xB1FCD2201BAD7858B82D9B462547342C)
Complete name : D:S.W.A.T.chopper887.mkv
Format : Matroska
File size : 1.45 GiB
Duration : 1h 57mn
Overall bit rate : 1 774 Kbps
Movie name : S.W.A.T.chopper887
Encoded date : UTC 2011-01-18 19:09:17
Writing application : mkvmerge v4.4.0 (Die Wiederkehr) сборка от Nov 7 2010 22:17:07
Writing library : libebml v1.0.0 + libmatroska v1.0.0

Video
ID : 1
Format : AVC
Format/Info : Advanced Video Codec
Format profile : [email protected]
Format settings, CABAC : Yes
Format settings, ReFrames : 10 frames
Codec ID : V_MPEG4/ISO/AVC
Duration : 1h 57mn
Bit rate : 1 390 Kbps
Width : 1 024 pixels
Height : 432 pixels
Display aspect ratio : 2.35:1
Frame rate : 23.976 fps
Color space : YUV
Chroma subsampling : 4:2:0
Bit depth : 8 bits
Scan type : Progressive
Bits/(Pixel*Frame) : 0.131
Stream size : 1.11 GiB (76%)
Title : S.W.A.T.chopper887
Writing library : x264 core 112 r1867 22bfd31
Encoding settings : cabac=1 / ref=10 / deblock=1:-2:-1 / analyse=0x3:0x133 / me=umh / subme=9 / psy=1 / psy_rd=1.00:0.10 / mixed_ref=1 / me_range=32 / chroma_me=1 / trellis=2 / 8x8dct=1 / cqm=0 / deadzone=21,11 / fast_pskip=0 / chroma_qp_offset=-3 / threads=3 / sliced_threads=0 / nr=0 / decimate=1 / interlaced=0 / constrained_intra=0 / bframes=8 / b_pyramid=2 / b_adapt=2 / b_bias=0 / direct=3 / weightb=1 / open_gop=0 / weightp=2 / keyint=250 / keyint_min=23 / scenecut=40 / intra_refresh=0 / rc_lookahead=80 / rc=2pass / mbtree=1 / bitrate=1390 / ratetol=1.0 / qcomp=0.60 / qpmin=10 / qpmax=51 / qpstep=4 / cplxblur=20.0 / qblur=0.5 / ip_ratio=1.40 / aq=1:1.00
Language : English

Audio
ID : 2
Format : AC-3
Format/Info : Audio Coding 3
Mode extension : CM (complete main)
Codec ID : A_AC3
Duration : 1h 57mn
Bit rate mode : Constant
Bit rate : 384 Kbps
Channel(s) : 6 channels
Channel positions : Front: L C R, Side: L R, LFE
Sampling rate : 48.0 KHz
Bit depth : 16 bits
Compression mode : Lossy
Stream size : 322 MiB (22%)
Title : Дубляж


bb5e41bf3f3c5fb8e25f201559fd54a94a298ae6Спецназ города ангелов / S.W.A.T. (Кларк Джонсон, Детектив, боевик, 2003) [BDRip-AVC, Дубляж] Спецназ города ангелов / S.W.A.T. (Кларк Джонсон, Детектив, боевик, 2003) [BDRip-AVC, Дубляж] " />

Аплоадер: Админ, дата: 7-05-2012, 18:49, торрент скачан: 359 раз

Понравилась раздача? Посмотрите эти:
  • FLO / NRG [2012, Pop, Dance, MasterRip]
  • Убить по расписанию / Ticking Clock (Эрни Барбараш, фантастика, боевик, три ...
  • Первый мститель / Captain America: The First Avenger (Джо Джонстон,фантасти ...
  • S.W.A.T.: Спецназ города ангелов / S.W.A.T. (Кларк Джонсон, боевик, триллер ...
  • Властелин измерений / Grande ourse - La cle des possibles (Патрис Сов, фант ...
  • Паранормальное явление 2 / Paranormal Activity 2 [Theatrical Сut / Театраль ...
  • Дом грёз / Dream House (Джим Шеридан, триллер, драма, детектив, 2011) [BDRi ...
  • Голодный кролик атакует / Seeking Justice (Роджер Дональдсон, боевик, 2011) ...
  • Голодный кролик атакует / Seeking Justice (Роджер Дональдсон / Roger Donald ...
  • Хранитель времени / Hugo (Мартин Скорсезе, Драма, 2011) [BDRip-AVC, Професс ...
  • «Старый» Новый год / New Years Eve (Гэрри Маршалл, Мелодрама, 2011) [BDRip- ...
  • Поворот не туда 4 / Wrong Turn 4 (Деклан О’Брайэн, ужасы, боевик, детектив, ...
  • Черное золото / Black Gold (Жан-Жак Анно, Драма, 2011) [BDRip-AVC, Професси ...
  • Неизвестный / Unknown (Жауме Серра / Jaume Collet-Serra, триллер, драма, де ...
  • Дети шпионов 4D / Spy Kids: All the Time in the World in 4D (Роберт Родриге ...
  • «Старый» Новый год / New Years Eve (Гэрри Маршалл, мелодрама, комедия, 2011 ...
  • «Весёлые» каникулы / Get the Gringo (Адриан Грюнберг, Боевик, комедия, 2012 ...
  • Ворон / The Raven (Джеймс МакТиг, Триллер, детектив, 2012) [BDRip 720p, Дуб ...
  • Люди в черном 3 / Men in Black III (Барри Зонненфельд, Фантастика, боевик, ...
  • Mylene Farmer / Du Temps [2011, Pop, HDTVRip]
  • Mylene Farmer / Bleu Noir [2011, Pop, HDTVRip]
  • S.W.A.T.: Спецназ города ангелов / S.W.A.T. (Кларк Джонсон / Clark Johnson, ...
  • S.W.A.T.: Спецназ города ангелов / S.W.A.T. (Кларк Джонсон, Боевик, кримина ...
  • Дом грёз / Dream House (Джим Шеридан / Jim Sheridan, триллер, драма, детект ...
  • S.W.A.T.: Спецназ города ангелов / S.W.A.T (Кларк Джонсон, боевик, триллер, ...
  • Информация
    Посетители, находящиеся в группе Гости, не могут оставлять комментарии к данной публикации.