вход на сайт

Имя пользователя :
Пароль :

Восстановление пароля Регистрация
Схватка / The Grey (Джо Карнахан, боевик, триллер, драма, приключения, 2012) [BDRip, Дублированный] [US Transfer]
Рейтинг:
(голосов: 1)



[img]{THEME}/images/logopost.png[/img]



Схватка / The Grey
«Live or Die on This Day»

Год выпуска: 2011
Страна: США
Производство: Universal pictures
Жанр: боевик, триллер, драма, приключения

Режиссёр: Джейсон Райтман
В ролях: Шарлиз Терон, Пэттон Освальт, Патрик Уилсон, Элизабет Ризер, Коллетт Вульф, Джилл Айкенберри, Ричард Бекинс, Мэри Бет Херт, Кейт Ноулин, Вирджиния ДаРе Полин

Перевод: Дублированный
Субтитры: Отсутствуют

Описание: На Аляске потерпел крушение самолет, и оставшиеся в живых пассажиры оказались в плену безлюдной снежной пустыни, где только стая волков скрашивает пейзаж. Люди хотят выжить любой ценой, и теперь им предстоит смертельная схватка…
"Знаете ли вы, что..." ▼-Первоначально главный герой фильма должен был быть значительно моложе. На эту роль был приглашен Брэдли Купер, который затем выбыл из проекта и был заменён на Лиама Нисона.
-Несмотря на то что действие фильма происходит на Аляске, съёмки полностью проходили южнее, на территории канадской провинции Британская Колумбия.
-Во время съёмок в окрестностях небольшого городка Смитерс режиссер Джо Карнахан заказал у местного 67-летнего охотника-траппера Дика МакДайармида четырёх убитых волков. Два из них пошли на чучела собственно для съёмок фильма, а два были съедены актёрами и членами съёмочной группы. По словам режиссера, это было сделано для того, чтобы лучше вжиться в образ. Внешность охотника понравилась специалистам по кастингу, и вдобавок он также получил небольшую роль-камео в баре в самом начале фильма.
-Релиз фильма вызвал громкие протесты у американских общественных организаций по защите животных. Крайне недовольные и возмущённые кровожадным изображением волков в фильме организации PETA и Wild Earth Guardians призывали к полному бойкоту картины.
-Премьерный показ фильма состоялся 11 января 2012 года в кинотеатре Regal Cinemas в Лос-Анджелесе.


Релиз от:
Автор рипа: Vaippp

Качество: BDRip => исх.The Grey 2012 BluRay 1080p AVC DTS-HD MA 5.1-HDChina
Продолжительность: 01:57:32 час.

Формат: AVI
Видео кодек: XviD
Аудио кодек: AC3
Видео: 720x304 (2.37:1), 23.976 fps, XviD ~2200 kbps, 0.500 bit/pix
Аудио: 48 kHz, AC3, 3/2 (L,C,R,l,r) + LFE ch, ~448.00 kbps avg | Russian (DUB)

Премьера (мир): 26 января 2012
Премьера (РФ): 26 января 2012, «UPI»
MediaInfo ▼General
Complete name : /Torrents/home/borodach/data/Shvatka.2011.RUS.BDRip.XviD.AC3.-HQ-ViDEO.avi
Format : AVI
Format/Info : Audio Video Interleave
Format profile : OpenDML
File size : 2.18 GiB
Duration : 1h 57mn
Overall bit rate : 2 658 Kbps
Movie name : The Grey (2011)
Director : Vaippp
Genre : Action/Adventure/Drama
Writing application : VirtualDubModRus 1.5.10.2 (build 2542/release)
Original source form/Name : Movie
Copyright : HQ-ViDEO
Comment : BDRip

Video
ID : 0
Format : MPEG-4 Visual
Format profile : Advanced [email protected]
Format settings, BVOP : 2
Format settings, QPel : No
Format settings, GMC : No warppoints
Format settings, Matrix : Custom
Codec ID : XVID
Codec ID/Hint : XviD
Duration : 1h 57mn
Bit rate : 2 200 Kbps
Width : 720 pixels
Height : 304 pixels
Display aspect ratio : 2.35:1
Frame rate : 23.976 fps
Color space : YUV
Chroma subsampling : 4:2:0
Bit depth : 8 bits
Scan type : Progressive
Compression mode : Lossy
Bits/(Pixel*Frame) : 0.419
Stream size : 1.81 GiB (83%)
Writing library : XviD 64

Audio
ID : 1
Format : AC-3
Format/Info : Audio Coding 3
Mode extension : CM (complete main)
Codec ID : 2000
Duration : 1h 57mn
Bit rate mode : Constant
Bit rate : 448 Kbps
Channel(s) : 6 channels
Channel positions : Front: L C R, Side: L R, LFE
Sampling rate : 48.0 KHz
Bit depth : 16 bits
Compression mode : Lossy
Stream size : 375 MiB (17%)
Alignment : Split accross interleaves
Interleave, duration : 42 ms (1.00 video frame)
Interleave, preload duration : 500 ms

c3acef7210a665247831728b3e290cecd6603c03Схватка / The Grey (Джо Карнахан, боевик, триллер, драма, приключения, 2012) [BDRip, Дублированный] [US Transfer] Схватка / The Grey (Джо Карнахан, боевик, триллер, драма, приключения, 2012) [BDRip, Дублированный] [US Transfer] " />

Аплоадер: Админ, дата: 5-05-2012, 12:29, торрент скачан: 359 раз

Понравилась раздача? Посмотрите эти:
  • Возвращение героя / The Last Stand (Ким Чжи-ун, Боевик, триллер, криминал, ...
  • Безумный Макс 3: Под куполом грома / Mad Max Beyond Thunderdome (Джордж Мил ...
  • Мужество / Wymyk (Грег Зглински, драма, 2011) [DVDRip, Любительский (одного ...
  • Звук моего голоса / Sound of My Voice (Зал Батманглидж, триллер, драма, 201 ...
  • Схватка / The Grey ( Джо Карнахан / Joe Carnahan, боевик, т риллер, дра ...
  • Схватка / The Grey (Джо Карнахан, боевик, триллер, драма, приключения, 2011 ...
  • Схватка / The Grey (Джо Карнахан, Боевик, 2012) [BDRip - AVC, Дубляж]
  • Бедная богатая девочка / Young Adult (Джейсон Райтман, драма, комедия, 2011 ...
  • Бедная богатая девочка / Young Adult (Джейсон Райтман, драма, комедия, 2011 ...
  • Схватка / The Grey (Джо Карнахан, боевик, триллер, драма, приключения, 2012 ...
  • Схватка / The Grey (Джо Карнахан, боевик, триллер, драма, приключения, 2011 ...
  • Схватка / The Grey (Джо Карнахан, боевик, триллер, драма, приключения, 2012 ...
  • Схватка / The Grey (Джо Карнахан, боевик, триллер, драма, приключения, 2011 ...
  • Схватка / The Grey (Джо Карнахан, Боевик, 2012) [BDRip 720p, Профессиональн ...
  • Схватка / The Grey (Джо Карнахан, боевик, триллер, драма, приключения, 2012 ...
  • Схватка / The Grey (Джо Карнахан, Боевик, 2012) [Blu-ray disc 1080p, Профес ...
  • Схватка / The Grey (Джо Карнахан / Joe Carnahan) [2012, США, боевик, трилле ...
  • [iPhone, iPod]Схватка / The Grey (Джо Карнахан / Joe Carnahan) [2012, Боеви ...
  • Схватка / The Grey (Джо Карнахан, боевик, триллер, драма, 2012) [HDRip, Дуб ...
  • Схватка / The Grey (Джо Карнахан, боевик, триллер, 2012г) [320x240] [BDRip, ...
  • Стыд / Shame (Стив МакКуин, драма, 2011) [HDRip, Дублированный + Оригинал] ...
  • Временная петля / Los cronocrímenes (Начо Вигалондо, фантастика, боевик, тр ...
  • Схватка / The Grey (Джо Карнахан, Боевик, 2012) [BDRip, Профессиональный (п ...
  • Схватка / The Grey (Джо Карнахан, боевик, триллер, драма, приключения, 2012 ...
  • Супершторм в Сиэтле / Seattle Superstorm (Джейсон Бурк, фантастика, боевик ...
  • Информация
    Посетители, находящиеся в группе Гости, не могут оставлять комментарии к данной публикации.